<?xml version="1.0" standalone="no"?>
<!DOCTYPE svg PUBLIC "-//W3C//DTD SVG 1.1//EN" "http://www.w3.org/Graphics/SVG/1.1/DTD/svg11.dtd" >
<svg>
<metadata>
Created by FontForge 20090914 at Thu May  9 02:30:16 2013
 By www-data
&#194;&#169;G.M.
</metadata>
<defs>
<font id="WalkwayBold" horiz-adv-x="525" >
  <font-face 
    font-family="Walkway Bold"
    font-weight="400"
    font-stretch="normal"
    units-per-em="1000"
    panose-1="0 0 4 0 0 0 0 0 0 0"
    ascent="800"
    descent="-200"
    x-height="488"
    cap-height="678"
    bbox="-163 -179 1046 874"
    underline-thickness="30"
    underline-position="-118"
    unicode-range="U+0020-U+2122"
  />
<missing-glyph horiz-adv-x="500" 
d="M63 0v874h375v-874h-375zM125 63h250v749h-250v-749z" />
    <glyph glyph-name=".notdef" horiz-adv-x="500" 
d="M63 0v874h375v-874h-375zM125 63h250v749h-250v-749z" />
    <glyph glyph-name="space" unicode=" " horiz-adv-x="354" 
 />
    <glyph glyph-name="exclam" unicode="!" horiz-adv-x="194" 
d="M72 166v512h51v-512h-51zM97 0c-17.333 0 -26 8.33301 -26 25v62c0 16 8.66699 24 26 24c16.667 0 25 -8 25 -24v-62c0 -16.667 -8.33301 -25 -25 -25z" />
    <glyph glyph-name="quotedbl" unicode="&#x22;" horiz-adv-x="292" 
d="M203 547c-17.333 0 -26 7.33301 -26 22v82c0 14 8.66699 21 26 21c16.667 0 25 -7 25 -21v-82c0 -14.667 -8.33301 -22 -25 -22zM87 547c-16.667 0 -25 7.33301 -25 22v82c0 14 8.33301 21 25 21c17.333 0 26 -7 26 -21v-82c0 -14.667 -8.66699 -22 -26 -22z" />
    <glyph glyph-name="numbersign" unicode="#" horiz-adv-x="531" 
d="M461 350h-90l-18 -71h89l-11 -45h-89l-19 -73h-52l19 73h-89l-19 -73h-52l19 73h-89l11 45h89l19 71h-91l14 45h88l19 73h52l-19 -73h89l18 73h52l-18 -73h89zM231 350l-19 -71h89l18 71h-88z" />
    <glyph glyph-name="dollar" unicode="$" horiz-adv-x="642" 
d="M415 -10l-0.00195312 -60.002h-51v53c-11.333 -0.666992 -22.666 -1 -33.999 -1c-21.333 0 -42 1.33301 -62 4v-56h-51v63c-130.667 30.667 -196 106 -196 226v24h51v-21c0 -95.333 48.333 -155.333 145 -180v303c-116 28.667 -174 84.667 -174 168
c0 94.667 58 153.334 174 176.001v64h51v-58c13.333 0.666992 27.666 1 42.999 1c18.667 0 36.334 -0.666992 53.001 -2v59h51v-66c118 -26.667 177.667 -99.667 179 -219h-50c-6 92 -49 148.667 -129 170v-284c62.667 -15.333 107.334 -32.666 134.001 -51.999
c39.333 -28.667 59 -72.334 59 -131.001c0 -49.333 -20.333 -90.666 -61 -123.999c-35.333 -28.667 -79.333 -47.667 -132 -57zM363.998 645.998c-16.667 2 -34.334 3 -53.001 3c-15.333 0 -29.666 -0.666992 -42.999 -2v-263l96 -18v280zM216.998 638.998
c-82 -19.333 -123 -61.333 -123 -126c0 -56 41 -95 123 -117v243zM535.998 246.998c-20 20.667 -60.333 39.667 -121 57v-266c40.667 8.66699 73.667 23.667 99 45c28.667 24 43 54.333 43 91c0 34 -7 58.333 -21 73zM363.998 314.998l-96 19v-301
c19.333 -2 40.333 -3 63 -3c11.333 0 22.333 0.333008 33 1v284z" />
    <glyph glyph-name="percent" unicode="%" horiz-adv-x="750" 
d="M166 -1h-62l498 679h61zM560 -19c-99.333 0 -149 60 -149 180c0 123.333 50 185 150 185c98.667 0 148 -61.667 148 -185c0 -120 -49.667 -180 -149 -180zM190 294c-98.667 0 -148 60 -148 180c0 122.667 49.667 184 149 184s149 -61.333 149 -184
c0 -120 -50 -180 -150 -180zM560 299c-64.667 0 -97 -46 -97 -138c0 -88.667 32.667 -133 98 -133c64 0 96 44.333 96 133c0 92 -32.333 138 -97 138zM190 611c-64 0 -96 -45.667 -96 -137c0 -88.667 32.333 -133 97 -133s97 44.333 97 133c0 91.333 -32.667 137 -98 137z
" />
    <glyph glyph-name="ampersand" unicode="&#x26;" horiz-adv-x="603" 
d="M486 99c-56.667 -76.667 -129.668 -115.001 -219.001 -115.001c-59.333 0 -111.333 13.667 -156 41c-53.333 32 -80 76 -80 132c0 50.667 23 97 69 139c30 26.667 75.333 55.334 136 86.001c-76.667 40.667 -115 94.667 -115 162c0 42.667 18 76.334 54 101.001
c31.333 22 69.333 33 114 33c47.333 0 86.333 -10.667 117 -32c34.667 -24 52 -58.667 52 -104c0 -64 -63.667 -129.667 -191 -197c-63.333 -33.333 -105.666 -59.333 -126.999 -78c-38.667 -34.667 -58 -71.334 -58 -110.001s19.333 -70 58 -94
c35.333 -21.333 75.666 -32 120.999 -32c86.667 0 150.334 36 191.001 108c22.667 40.667 34 87.667 34 141h51v-299h-51v118zM369.999 609.999c-21.333 14 -47.667 21 -79 21c-32 0 -59.333 -7.33301 -82 -22c-24.667 -16 -37 -38 -37 -66c0 -57.333 38 -102.333 114 -135
c80.667 44.667 121 89.667 121 135c0 28 -12.333 50.333 -37 67z" />
    <glyph glyph-name="quotesingle" unicode="'" horiz-adv-x="175" 
d="M87 547c-16.667 0 -25 7.33301 -25 22v82c0 14 8.33301 21 25 21c17.333 0 26 -7 26 -21v-82c0 -14.667 -8.66699 -22 -26 -22z" />
    <glyph glyph-name="parenleft" unicode="(" horiz-adv-x="233" 
d="M186 -168c-86.667 132.667 -130 282.998 -130 450.998c0 168.667 43.333 319 130 451h57c-90.667 -135.333 -136 -285.666 -136 -450.999s45.333 -315.666 136 -450.999h-57z" />
    <glyph glyph-name="parenright" unicode=")" horiz-adv-x="233" 
d="M42 -168l-57 0.00195312c93.333 135.333 140 285.666 140 450.999s-46.667 315.666 -140 450.999h57c89.333 -130 134 -280.333 134 -451c0 -170 -44.667 -320.333 -134 -451z" />
    <glyph glyph-name="asterisk" unicode="*" horiz-adv-x="340" 
d="M69 624h2.00195l64 -30v55c0 15.333 8.66699 23 26 23c16.667 0 25 -7.66699 25 -23v-55l62 28c4.66699 2 9 3 13 3c8.66699 0 16 -3 22 -9c2 -4.66699 3 -9 3 -13c0 -9.33301 -4.66699 -16 -14 -20l-57 -25l57 -27c10 -4.66699 15 -11.334 15 -20.001
c0 -14.667 -8.33301 -22 -25 -22c-5.33301 0 -10.333 1 -15 3l-61 29v-55c0 -15.333 -8.33301 -23 -25 -23c-17.333 0 -26 7.66699 -26 23v55l-61 -29c-4.66699 -2 -9.33398 -3 -14.001 -3c-16.667 0 -25 7.33301 -25 22c0 8.66699 5 15.334 15 20.001l57 27l-58 26
c-10 4 -15 10.333 -15 19c0 4 2.16699 8.66699 6.5 14s10.5 8 18.5 8c3.33301 0 6.66602 -0.333008 9.99902 -1z" />
    <glyph glyph-name="plus" unicode="+" horiz-adv-x="560" 
d="M305 228v-161h-51v161h-191v46h191v159h51v-159h192v-46h-192z" />
    <glyph glyph-name="comma" unicode="," horiz-adv-x="262" 
d="M135 -74c-3.33301 -11.333 -11.667 -17 -25 -17c-17.333 0 -26 7 -26 21c0 2 0.666992 4.66699 2 8l43 132c4 14 14 19.333 30 16c13.333 -3.33301 20 -10.333 20 -21c0 -2 -0.666992 -4.33301 -2 -7z" />
    <glyph glyph-name="hyphen" unicode="-" horiz-adv-x="350" 
d="M36 254v20h287v-20h-287z" />
    <glyph glyph-name="hyphen" unicode="&#x2010;" horiz-adv-x="350" 
d="M36 254v20h287v-20h-287z" />
    <glyph glyph-name="period" unicode="." horiz-adv-x="209" 
d="M105 -2c-17.333 0 -26 6.66699 -26 20v47c0 13.333 8.66699 20 26 20c16.667 0 25 -6.66699 25 -20v-47c0 -13.333 -8.33301 -20 -25 -20z" />
    <glyph glyph-name="slash" unicode="/" horiz-adv-x="350" 
d="M32 0h-54l349 694h54z" />
    <glyph glyph-name="zero" unicode="0" horiz-adv-x="584" 
d="M293 -12c-80 0 -143.667 24.333 -191 73c-46 46.667 -69 108.667 -69 186v164c0 78.667 23.667 141.667 71 189s110.333 71 189 71c80.667 0 143.667 -24 189 -72s68 -110.667 68 -188v-164c0 -77.333 -22.667 -139.833 -68 -187.5s-108.333 -71.5 -189 -71.5zM499 411
c0 63.333 -18 114.334 -54 153.001c-38 40 -89 60 -153 60s-114.667 -19.333 -152 -58s-56 -90.334 -56 -155.001v-164c0 -64 18.833 -115.333 56.5 -154s88.167 -58 151.5 -58c65.333 0 116.333 20 153 60c36 38 54 88.667 54 152v164z" />
    <glyph glyph-name="one" unicode="1" horiz-adv-x="413" 
d="M274 0v573l-134 -106h-78l222 179h41v-646h-51z" />
    <glyph glyph-name="two" unicode="2" horiz-adv-x="584" 
d="M43 0c0.666992 125.333 69.001 227.999 205.001 307.999l140 80c56.667 32.667 85 67.334 85 104.001c0 41.333 -18 72.333 -54 93c-29.333 16.667 -68 25 -116 25c-67.333 0 -117 -15.667 -149 -47s-48 -80.666 -48 -147.999h-51c0 82.667 21.333 143.667 64 183
s102 59 178 59c63.333 0 114.666 -11.667 153.999 -35c48 -28.667 72 -72.667 72 -132c0 -57.333 -55 -116 -165 -176c-54.667 -30.667 -94.667 -54 -120 -70c-87.333 -64.667 -134 -130.334 -140 -197.001h456v-47h-511z" />
    <glyph glyph-name="three" unicode="3" horiz-adv-x="584" 
d="M297 -11c-78.667 0 -142.003 17.668 -190.003 53.001c-54 39.333 -81 96.333 -81 171v24h51v-37c0 -54.667 22.333 -96.334 67 -125.001c38.667 -26 88.334 -39 149.001 -39c56.667 0 104.334 11 143.001 33c46.667 26.667 70 64.334 70 113.001
c0 94 -64.667 141 -194 141h-61v47h62c119.333 0 179 40.667 179 122c0 41.333 -20.667 72.333 -62 93c-33.333 16.667 -74.666 25 -123.999 25c-72 0 -124.833 -14.833 -158.5 -44.5s-50.5 -76.167 -50.5 -139.5h-51c0 83.333 25 143.666 75 180.999
c44 33.333 104.667 50 182 50c64.667 0 117.667 -11 159 -33c54 -28 81 -72 81 -132c0 -71.333 -34.667 -119.333 -104 -144c78 -27.333 117 -82.666 117 -165.999c0 -64.667 -28.333 -114.334 -85 -149.001c-47.333 -29.333 -105.333 -44 -174 -44z" />
    <glyph glyph-name="four" unicode="4" horiz-adv-x="584" 
d="M434 215v-215h-51v215h-374l223 432h54l-199 -385h296v386l51 -3v-383h129v-47h-129z" />
    <glyph glyph-name="five" unicode="5" horiz-adv-x="584" 
d="M288 -11c-79.333 0 -141.668 17.332 -187.001 51.999c-51.333 38.667 -77 100.334 -77 185.001h51c0 -68.667 20 -118 60 -148c37.333 -28 88.666 -42 153.999 -42c62.667 0 113.167 15.667 151.5 47s57.5 76.333 57.5 135c0 58 -21 103.333 -63 136
c-39.333 30.667 -90.666 46 -153.999 46c-82.667 0 -144.667 -31.667 -186 -95h-50l16 341h458v-47h-408l-9 -216c45.333 42.667 106.333 64 183 64c76 0 138 -19.333 186 -58c52 -41.333 78 -98 78 -170c0 -74 -25.667 -131.667 -77 -173
c-47.333 -38 -108.666 -57 -183.999 -57z" />
    <glyph glyph-name="six" unicode="6" horiz-adv-x="584" 
d="M487 426c0 61.333 -18.168 107.167 -54.501 137.5s-82.5 45.5 -138.5 45.5c-57.333 0 -103.666 -14.667 -138.999 -44s-53.333 -70.666 -54 -123.999l-1 -96c43.333 48 107 72 191 72c70 0 127 -18 171 -54c47.333 -38.667 71 -91.667 71 -159
c0 -66.667 -24 -119 -72 -157c-44.667 -35.333 -102 -53 -172 -53s-127 17.667 -171 53c-47.333 38 -71 90.333 -71 157v11c0.666992 2 1 4.66699 1 8v220c0 67.333 24.667 120 74 158c45.333 34.667 103 52 173 52c69.333 0 126.333 -18 171 -54
c47.333 -38.667 71 -96.334 71 -173.001h-50zM289.999 373.001c-57.333 0 -103.333 -14.333 -138 -43c-36.667 -30.667 -55 -72.667 -55 -126c0 -52.667 18 -93.667 54 -123s82.333 -44 139 -44s103 14.667 139 44s54 70.333 54 123c0 53.333 -17.833 94.833 -53.5 124.5
s-82.167 44.5 -139.5 44.5z" />
    <glyph glyph-name="seven" unicode="7" horiz-adv-x="584" 
d="M221 0h-54l306 599h-422v47h500z" />
    <glyph glyph-name="eight" unicode="8" horiz-adv-x="601" 
d="M485 29c-47.333 -26.667 -108.667 -40 -184 -40c-76 0 -137.667 14 -185 42c-59.333 34 -89 86.333 -89 157c0 85.333 45 141.333 135 168c-66.667 27.333 -100 70.333 -100 129c0 62 25.667 107.667 77 137c41.333 23.333 95.333 35 162 35
c66 0 119.667 -11.667 161 -35c52 -30 78 -75.667 78 -137c0 -58.667 -34 -101.667 -102 -129c90.667 -27.333 136 -84 136 -170c0 -70.667 -29.667 -123 -89 -157zM300.999 610c-125.333 0 -188 -42 -188 -126c0 -36.667 22.333 -64.667 67 -84c36 -16 76.667 -24 122 -24
c46.667 0 87.667 8.33301 123 25c42.667 20 64 48.333 64 85c0 82.667 -62.667 124 -188 124zM301.999 329c-149.333 0 -224.001 -47.333 -224.001 -142c0 -54 23.667 -94 71 -120c38.667 -20.667 89.334 -31 152.001 -31s113 10.333 151 31c47.333 26 71 66 71 120
c0 94.667 -73.667 142 -221 142z" />
    <glyph glyph-name="nine" unicode="9" horiz-adv-x="584" 
d="M536 433l-0.000976562 -239c0 -66.667 -24.667 -119 -74 -157c-45.333 -34.667 -103 -52 -173 -52s-127 17.667 -171 53c-47.333 38.667 -71 96 -71 172h50c0 -62 18 -107.833 54 -137.5s82.333 -44.5 139 -44.5s102.334 14.667 137.001 44c37.333 30 56 71.333 56 124
l1 115c-43.333 -47.333 -107 -71 -191 -71c-70 0 -127 17.667 -171 53c-47.333 38 -71 90.333 -71 157s24 119.334 72 158.001c44.667 36 102 54 172 54s127 -18 171 -54c47.333 -38.667 71 -91.334 71 -158.001v-11c-0.666992 -2.66699 -1 -4.66699 -1 -6zM293.999 619
c-57.333 0 -103.333 -14.333 -138 -43c-36.667 -30.667 -55 -72.667 -55 -126c0 -52.667 18 -93.667 54 -123s82.333 -44 139 -44s103 14.667 139 44s54 70.333 54 123c0 53.333 -17.833 94.833 -53.5 124.5s-82.167 44.5 -139.5 44.5z" />
    <glyph glyph-name="colon" unicode=":" horiz-adv-x="244" 
d="M123 355c-17.333 0 -25.999 8 -25.999 24v61c0 16.667 8.66699 25 26 25c15.333 0 23.666 -8 24.999 -24v-62c0 -16 -8.33301 -24 -25 -24zM123.001 -2c-17.333 0 -25.999 8.33301 -25.999 25v61c0 16 8.66699 24 26 24c15.333 0 23.666 -8 24.999 -24v-61
c0 -16.667 -8.33301 -25 -25 -25z" />
    <glyph glyph-name="semicolon" unicode=";" horiz-adv-x="251" 
d="M143 354c-17.333 0 -26 8.33301 -26 25v61c0 16.667 8.66699 25 26 25c16.667 0 25 -8.33301 25 -25v-61c0 -16.667 -8.33301 -25 -25 -25zM129 -72c-3.33301 -12.667 -11.333 -19 -24 -19c-18 0 -27 7.66699 -27 23c0 2 0.666992 5 2 9l43 147c4 15.333 14 21 30 17
c13.333 -3.33301 20 -10.666 20 -21.999c0 -2.66699 -0.666992 -5.33398 -2 -8.00098z" />
    <glyph glyph-name="less" unicode="&#x3c;" horiz-adv-x="535" 
d="M33 220v41l460 177v-49l-386 -149l386 -149v-49z" />
    <glyph glyph-name="equal" unicode="=" horiz-adv-x="630" 
d="M35 271v42h560v-42h-560zM35 167v42h560v-42h-560z" />
    <glyph glyph-name="greater" unicode="&#x3e;" horiz-adv-x="535" 
d="M33 42v49l386 149l-386 149v49l460 -177v-41z" />
    <glyph glyph-name="question" unicode="?" 
d="M281 203l0.000976562 -37.001h-52v32c0 66 34.333 126.667 103 182c39.333 31.333 65.666 56 78.999 74c15.333 21.333 23 46 23 74c0 40.667 -18 71.667 -54 93c-30 17.333 -68.667 26 -116 26c-59.333 0 -104.5 -13.667 -135.5 -41s-50.167 -71.666 -57.5 -132.999
l-47 26c9.33301 68 36.333 118 81 150c42 30 95.333 45 160 45c58 0 107.333 -12.667 148 -38c48 -30 72 -72.667 72 -128c0 -58.667 -34 -115 -102 -169s-102 -106 -102 -156zM254.001 -0.000976562c-16.667 0 -25 8.33301 -25 25v62c0 16 8.33301 24 25 24
c17.333 0 26 -8 26 -24v-62c0 -16.667 -8.66699 -25 -26 -25z" />
    <glyph glyph-name="at" unicode="@" horiz-adv-x="840" 
d="M550 203c-46 -52 -106.999 -78.333 -182.999 -79c-68.667 -0.666992 -120 22.666 -154 69.999c-23.333 31.333 -35 69 -35 113c0 74 21.667 135 65 183c45.333 50.667 106.666 76.334 183.999 77.001c78 1.33301 132 -23.667 162 -75l11 75h48l-51 -372
c0.666992 -2 0.666992 -4.33301 0 -7h4c13.333 0 29.666 7.33301 48.999 22c17.333 13.333 30.666 27 39.999 41c34.667 52.667 52 102.334 52 149.001c0 75.333 -30.667 136.333 -92 183c-58 44 -128 66 -210 66c-96 0 -176 -27.333 -240 -82
c-68 -57.333 -102 -133 -102 -227c0 -92.667 34.333 -167.334 103 -224.001c64.667 -54 144 -81 238 -81c55.333 0 110.333 12 165 36c58.667 26 102 62.333 130 109h59c-36 -65.333 -89 -114 -159 -146c-63.333 -30 -126.666 -45 -189.999 -45
c-109.333 0 -202 31.333 -278 94c-81.333 67.333 -122 154.666 -122 261.999c0 105.333 39.667 191 119 257c74.667 62 165.667 93 273 93c96 0 178 -25 246 -75c74.667 -55.333 112 -129.333 112 -222c0 -65.333 -22 -126.333 -66 -183
c-15.333 -19.333 -34.666 -36.666 -57.999 -51.999c-27.333 -16.667 -52.666 -25 -75.999 -25c-34.667 0 -49.334 21.667 -44.001 65zM421.001 523c-59.333 -0.666992 -107.332 -22.334 -143.999 -65.001c-34.667 -40 -52 -89.667 -52 -149c0 -44 12.5 -78.667 37.5 -104
s60.5 -37.666 106.5 -36.999c52 0 96.667 17.333 134 52s59.666 77.667 66.999 129c1.33301 8 2 19.333 2 34c0 46 -13.167 81 -39.5 105s-63.5 35.667 -111.5 35z" />
    <glyph glyph-name="A" unicode="A" horiz-adv-x="636" 
d="M598 0l-97 213h-362l-99 -213h-58l318 678h47l307 -678h-56zM324 604l-163 -343h319z" />
    <glyph glyph-name="B" unicode="B" horiz-adv-x="642" 
d="M359 0l-325 0.000976562v678h338c63.333 0 115.333 -13.667 156 -41c46.667 -31.333 70 -77 70 -137c0 -64.667 -36.667 -112.667 -110 -144c88 -25.333 132 -81 132 -167c0 -66.667 -28.333 -116.334 -85 -149.001c-46 -26.667 -104.667 -40 -176 -40zM370 631.001h-285
v-255h284c49.333 0 90 9.66699 122 29c37.333 22.667 56 56 56 100s-19.333 77 -58 99c-31.333 18 -71 27 -119 27zM367 329.001h-281.999v-282h286c55.333 0 100.666 10.667 135.999 32c42 24.667 63 61 63 109c0 51.333 -22.333 89 -67 113c-34.667 18.667 -80 28 -136 28
z" />
    <glyph glyph-name="C" unicode="C" horiz-adv-x="719" 
d="M646 528c-50.667 73.333 -132.001 110.001 -244.001 110.001c-96 0 -172.5 -27 -229.5 -81s-85.5 -127 -85.5 -219c0 -90.667 27.167 -163 81.5 -217s128.5 -81 222.5 -81c107.333 0 189.333 37.333 246 112l44 -28c-67.333 -87.333 -163.666 -131 -288.999 -131
c-109.333 0 -196 30.667 -260 92s-96 144.333 -96 249c0 107.333 33 192.666 99 255.999s155 95 267 95c130 0 225.667 -43.333 287 -130z" />
    <glyph glyph-name="D" unicode="D" horiz-adv-x="680" 
d="M277 0h-235v678h273c111.333 0 196 -30.333 254 -91c55.333 -58.667 83 -141.667 83 -249c0 -110.667 -35.333 -195.667 -106 -255c-66 -55.333 -155.667 -83 -269 -83zM532 553c-48.667 52 -121.332 78 -217.999 78h-221v-584h187c101.333 0 180.166 24.667 236.499 74
s84.5 121.666 84.5 216.999c0 94.667 -23 166.334 -69 215.001z" />
    <glyph glyph-name="E" unicode="E" horiz-adv-x="564" 
d="M42 0v678h516v-47h-466v-255h413v-46h-413v-283h471v-47h-521z" />
    <glyph glyph-name="F" unicode="F" horiz-adv-x="505" 
d="M92 631v-255h368v-46h-368v-330h-50v678h480v-47h-430z" />
    <glyph glyph-name="G" unicode="G" horiz-adv-x="758" 
d="M612 56c-61.333 -42 -135.002 -63 -221.002 -63c-113.333 0 -203 29.333 -269 88c-68.667 60.667 -103 146 -103 256c0 107.333 32.833 192.166 98.5 254.499s154.5 93.5 266.5 93.5c83.333 0 152.666 -16.667 207.999 -50c62.667 -38 103.334 -101 122.001 -189h-52
c-29.333 128 -121.666 192 -276.999 192c-97.333 0 -174.166 -26.667 -230.499 -80s-84.5 -126.666 -84.5 -219.999c0 -95.333 28.5 -168.833 85.5 -220.5s135.5 -77.5 235.5 -77.5c76.667 0 141.667 19.667 195 59c57.333 42 86 97.667 86 167v18h-291v47h340
c2 -22 3 -39.667 3 -53c0 -96.667 -37.333 -170.667 -112 -222z" />
    <glyph glyph-name="H" unicode="H" horiz-adv-x="680" 
d="M587 0v330h-494v-330h-51v678h51v-302h494v302h51v-678h-51z" />
    <glyph glyph-name="I" unicode="I" horiz-adv-x="134" 
d="M42 0v678h51v-678h-51z" />
    <glyph glyph-name="J" unicode="J" horiz-adv-x="486" 
d="M223 -7c-134.667 0 -208 58.334 -220 175.001h52c7.33301 -85.333 62 -128 164 -128c62 0 105.667 12.167 131 36.5s38 66.166 38 125.499v476h51v-482c0 -135.333 -72 -203 -216 -203z" />
    <glyph glyph-name="K" unicode="K" horiz-adv-x="670" 
d="M616 0l-378 357l-145 -110v-247h-51v678h51v-371l499 371h81l-394 -292l408 -386h-71z" />
    <glyph glyph-name="L" unicode="L" horiz-adv-x="505" 
d="M42 0v678h51v-631h428v-47h-479z" />
    <glyph glyph-name="M" unicode="M" horiz-adv-x="819" 
d="M725 0v582l-295 -582h-41l-296 582v-582h-51v678h58l309 -609l310 609h57v-678h-51z" />
    <glyph glyph-name="N" unicode="N" horiz-adv-x="680" 
d="M585 0l-492 602v-602h-51v678h53l246 -301l246 -298v599h51v-678h-53z" />
    <glyph glyph-name="O" unicode="O" horiz-adv-x="757" 
d="M379 -7c-112 0 -199.833 30.667 -263.5 92s-95.5 146 -95.5 254c0 106.667 32 189.334 96 248.001s151.667 88 263 88s199.166 -29.333 263.499 -88s96.5 -141.334 96.5 -248.001s-32.167 -191 -96.5 -253s-152.166 -93 -263.499 -93zM379 628
c-96.667 0 -172.167 -25.167 -226.5 -75.5s-81.5 -121.5 -81.5 -213.5s27.333 -164.833 82 -218.5s130 -80.5 226 -80.5c97.333 0 173.166 26.5 227.499 79.5s81.5 126.167 81.5 219.5c0 92 -27.167 163.167 -81.5 213.5s-130.166 75.5 -227.499 75.5z" />
    <glyph glyph-name="P" unicode="P" horiz-adv-x="621" 
d="M346 296h-253v-296h-51v678h315c164.667 0 247 -64.667 247 -194c0 -65.333 -28 -114.333 -84 -147c-46 -27.333 -104 -41 -174 -41zM363 631h-270v-288h271c51.333 0 94.333 11.333 129 34c39.333 25.333 59 61 59 107c0 98 -63 147 -189 147z" />
    <glyph glyph-name="Q" unicode="Q" horiz-adv-x="757" 
d="M500 7c20.667 -17.333 47.002 -26.001 79.002 -26.001h107v-47h-107c-56.667 0 -101.667 20.333 -135 61c-20.667 -2.66699 -42.334 -4 -65.001 -4c-112 0 -199.833 30.833 -263.5 92.5s-95.5 146.5 -95.5 254.5c0 106.667 32 189.5 96 248.5s151.667 88.5 263 88.5
s199.166 -29.5 263.499 -88.5s96.5 -141.833 96.5 -248.5c0 -82.667 -20 -152.667 -60 -210c-42 -59.333 -101.667 -99.666 -179 -120.999zM379.002 627.999c-96.667 0 -172.169 -25.335 -226.502 -76.002s-81.5 -122 -81.5 -214c0 -86 24.333 -155.333 73 -208
c12 29.333 32.167 52.5 60.5 69.5s59.5 25.5 93.5 25.5c44.667 0 83.334 -13.667 116.001 -41s49 -62.666 49 -105.999c0 -10 2 -20 6 -30c71.333 16.667 126.333 51.334 165 104.001c36 50 54 112 54 186c0 92 -27.167 163.333 -81.5 214s-130.166 76 -227.499 76z
M414 78.9971c0 30 -11.168 54.166 -33.501 72.499s-49.833 27.5 -82.5 27.5c-28 0 -53.167 -7.66699 -75.5 -23s-35.166 -35.666 -38.499 -60.999c52.667 -38 117.667 -57 195 -57c14.667 0 28.667 0.666992 42 2c-4.66699 12.667 -7 25.667 -7 39z" />
    <glyph glyph-name="R" unicode="R" horiz-adv-x="642" 
d="M492 331c70 -27.333 105 -80.333 105 -159v-172h-51v170c0 88.667 -62 133 -186 133h-267v-303h-51v678h327c158.667 0 238 -59.333 238 -178c0 -82.667 -38.333 -139 -115 -169zM371 631h-278v-279h262c57.333 0 103.333 10.667 138 32c42 25.333 63 63 63 113
c0 89.333 -61.667 134 -185 134z" />
    <glyph glyph-name="S" unicode="S" horiz-adv-x="642" 
d="M330 -7c-87.333 0 -157.333 15.666 -210 46.999c-66 38 -99 97.667 -99 179v24h51v-20c0 -122 86.333 -183 259 -183c59.333 0 109 9 149 27c51.333 23.333 77 59.333 77 108c0 34 -9.33301 60 -28 78c-15.333 14.667 -41.666 27.667 -78.999 39
c-20 5.33301 -67.333 16 -142 32c-86 18 -144 34.667 -174 50c-60.667 30.667 -91 76.334 -91 137.001c0 116 89.333 174 268 174c186.667 0 281 -72.667 283 -218h-50c-4 70 -28 117 -72 141c-36 20 -89.667 30 -161 30c-144.667 0 -217 -42.333 -217 -127
c0 -41.333 19.667 -72.333 59 -93c27.333 -14 73.666 -27 138.999 -39c121.333 -21.333 202.333 -44.333 243 -69c48.667 -29.333 73 -75.333 73 -138s-32.333 -110 -97 -142c-50 -24.667 -110.333 -37 -181 -37z" />
    <glyph glyph-name="T" unicode="T" horiz-adv-x="545" 
d="M298 631v-631h-51v631h-259v47h569v-47h-259z" />
    <glyph glyph-name="U" unicode="U" horiz-adv-x="664" 
d="M546 53c-47.333 -40 -118.666 -60 -213.999 -60c-96.667 0 -168.334 20.333 -215.001 61c-50 42.667 -75 110 -75 202v422h51v-422c0 -144 79.667 -216 239 -216c158.667 0 238 71 238 213v425h51v-424c0 -91.333 -25 -158.333 -75 -201z" />
    <glyph glyph-name="V" unicode="V" horiz-adv-x="628" 
d="M340 0h-43l-307 678h54l275 -606l266 606h54z" />
    <glyph glyph-name="W" unicode="W" horiz-adv-x="970" 
d="M689 0h-43l-159 364l-155 -364h-43l-296 678h54l264 -604l148 353l-109 251h54l264 -605l255 605h53z" />
    <glyph glyph-name="X" unicode="X" horiz-adv-x="604" 
d="M570 0l-266 311l-269 -311h-65l300 349l-285 329h67l252 -292l254 292h66l-285 -330l296 -348h-65z" />
    <glyph glyph-name="Y" unicode="Y" horiz-adv-x="626" 
d="M339 328v-328h-51v328l-321 350h66l280 -304l281 304h65z" />
    <glyph glyph-name="Z" unicode="Z" horiz-adv-x="626" 
d="M22 0v45l507 586h-478v47h546v-44l-507 -587h515v-47h-583z" />
    <glyph glyph-name="bracketleft" unicode="[" horiz-adv-x="233" 
d="M86 -168v902h148v-48h-97v-806h97v-48h-148z" />
    <glyph glyph-name="backslash" unicode="\" horiz-adv-x="350" 
d="M320 0l-352 694h54l352 -694h-54z" />
    <glyph glyph-name="bracketright" unicode="]" horiz-adv-x="233" 
d="M146 -168h-147v48h96l1 32l-1 774h-96v48h148z" />
    <glyph glyph-name="asciicircum" unicode="^" horiz-adv-x="298" 
d="M203 511l-56 82l-56 -82h-56l92 135h38l98 -135h-60z" />
    <glyph glyph-name="underscore" unicode="_" 
d="M-15 -119v48h555v-48h-555z" />
    <glyph glyph-name="grave" unicode="`" horiz-adv-x="193" 
d="M170 533c-10.667 -6 -22.333 -4.99902 -35 3.00098l-86 72c-24 20.667 -36 35.667 -36 45c0 5.33301 3.66699 10 11 14c12 8.66699 24 7.66699 36 -3l113 -100c4.66699 -4 7 -8.66699 7 -14c0 -6.66699 -3.33301 -12.334 -10 -17.001z" />
    <glyph glyph-name="a" unicode="a" horiz-adv-x="564" 
d="M463 -1l0.00195312 88c-44.667 -65.333 -112.334 -98 -203.001 -98c-77.333 0 -138.333 24.667 -183 74c-42 46.667 -63 106.667 -63 180c0 75.333 21.333 136.333 64 183c44.667 49.333 106.667 74 186 74c89.333 0 155.666 -31.667 198.999 -95v93h51v-499h-51z
M412.002 395c-36 38.667 -87.001 58.001 -153.001 58.001c-61.333 0 -110 -20.667 -146 -62c-32.667 -38.667 -49 -88 -49 -148c0 -60.667 16.333 -109.667 49 -147c34.667 -40 83.334 -60 146.001 -60c62 0 111.5 19.667 148.5 59s55.5 88.666 55.5 147.999
c0 64 -17 114.667 -51 152z" />
    <glyph glyph-name="b" unicode="b" horiz-adv-x="564" 
d="M478 63c-44.667 -48.667 -106.666 -73 -185.999 -73c-86 0 -152 32.667 -198 98v-88h-51v678h51v-265c43.333 63.333 109.666 95 198.999 95c80 0 142 -25.333 186 -76c41.333 -46.667 62 -108.667 62 -186c0 -76.667 -21 -137.667 -63 -183zM443.001 399
c-34 40.667 -82.666 60.999 -145.999 60.999c-68 0 -119.333 -20 -154 -60c-32.667 -37.333 -49 -89.333 -49 -156c0 -61.333 18.667 -111.166 56 -149.499s86.666 -57.5 147.999 -57.5c62 0 110.333 20.333 145 61c32 38 48 87.667 48 149c0 63.333 -16 114 -48 152z" />
    <glyph glyph-name="c" unicode="c" 
d="M418 26c-40 -24.667 -88 -37.002 -144 -37.002c-78.667 0 -141 22.5 -187 67.5s-69 104.833 -69 179.5c0 78.667 23.5 142.334 70.5 191.001s112.5 73 196.5 73c50.667 0 94.667 -11.333 132 -34c41.333 -25.333 69.333 -64.666 84 -117.999l-47 -23
c-22.667 85.333 -79.667 128 -171 128c-68 0 -120.667 -20 -158 -60s-56 -92.333 -56 -157c0 -61.333 18 -110 54 -146s86 -54 150 -54c45.333 0 84.333 10 117 30c35.333 22 58 58.667 68 110l48 -21c-14 -58 -43.333 -101 -88 -129z" />
    <glyph glyph-name="d" unicode="d" horiz-adv-x="564" 
d="M463 0l0.00195312 88c-44.667 -66 -112.334 -99 -203.001 -99c-77.333 0 -138.333 25 -183 75c-42 47.333 -63 108.333 -63 183c0 76 21.333 137.667 64 185c44.667 50 106.667 75 186 75c89.333 0 155.666 -31.667 198.999 -95v266h51v-678h-51zM412.002 401
c-36 39.333 -87.002 59.001 -153.002 59.001c-61.333 0 -109.666 -21 -144.999 -63c-33.333 -39.333 -50 -89.333 -50 -150c0 -61.333 16.333 -111 49 -149c34.667 -41.333 83.334 -62 146.001 -62c62 0 111.667 20.667 149 62c36.667 39.333 55 89 55 149
c0 65.333 -17 116.666 -51 153.999z" />
    <glyph glyph-name="e" unicode="e" 
d="M61 226c6.66699 -126.667 73.667 -190 201 -190c96.667 0 160.334 39.667 191.001 119h52c-19.333 -62.667 -52.333 -106.667 -99 -132c-40.667 -22.667 -89.334 -34 -146.001 -34c-82 0 -144.667 23.667 -188 71c-40.667 44 -61 105 -61 183
c0 76.667 23.167 138.667 69.5 186s107.833 71 184.5 71s138 -21.5 184 -64.5s69 -100.833 69 -173.5v-35zM265 453c-56.667 0 -103.166 -16 -139.499 -48s-57.5 -76 -63.5 -132h400c-3.33301 56 -22.833 100 -58.5 132s-81.834 48 -138.501 48z" />
    <glyph glyph-name="f" unicode="f" horiz-adv-x="267" 
d="M138 477v-32h111v-48h-111v-398h-51v398h-72v48h72v32c0 126 84.667 189 254 189v-46c-135.333 0 -203 -47.667 -203 -143z" />
    <glyph glyph-name="g" unicode="g" horiz-adv-x="545" 
d="M266 -179c-60 0 -108.999 11.666 -146.999 34.999c-46.667 28 -71.667 75 -75 141h51c7.33301 -86 64.666 -129 171.999 -129c124 0 186 52 186 156v64c-45.333 -58.667 -110.666 -88 -195.999 -88c-74.667 0 -133.667 23 -177 69s-65 105.667 -65 179
c0 74.667 22.167 135.334 66.5 182.001s105.166 70 182.499 70c84 0 147 -30 189 -90v79h51v-466c0 -134.667 -79.333 -202 -238 -202zM262.001 452.999c-60 0 -107.999 -20.001 -143.999 -60.001c-34.667 -37.333 -52 -85.333 -52 -144c0 -59.333 16 -107 48 -143
c34 -39.333 81 -59 141 -59c61.333 0 109.666 18.333 144.999 55s53 84.667 53 144c0 58.667 -17.333 107.834 -52 147.501s-81 59.5 -139 59.5z" />
    <glyph glyph-name="h" unicode="h" 
d="M429 0l0.000976562 324c0 44 -13.833 77.667 -41.5 101s-65.167 35 -112.5 35c-56 0 -100.167 -16.833 -132.5 -50.5s-48.5 -77.5 -48.5 -131.5v-278h-51v678h51v-249c38.667 52.667 98.667 79 180 79c59.333 0 107.666 -14.333 144.999 -43
c40.667 -31.333 61 -75.333 61 -132v-333h-51z" />
    <glyph glyph-name="i" unicode="i" horiz-adv-x="136" 
d="M67 577c-10.667 0 -18.667 6.66699 -24 20v70c6 13.333 14 20 24 20c8 0 17 -6 27 -18v-74c-9.33301 -12 -18.333 -18 -27 -18zM43 0v496h51v-496h-51z" />
    <glyph glyph-name="j" unicode="j" horiz-adv-x="136" 
d="M67 577c-10.667 0 -18.667 6.33301 -24 19v71c6 13.333 14 20 24 20c8 0 17 -6 27 -18v-75c-9.33301 -11.333 -18.333 -17 -27 -17zM-163 -179v47c135.333 0 203 52.667 203 158v469h51v-470c0 -136 -84.667 -204 -254 -204z" />
    <glyph glyph-name="k" unicode="k" horiz-adv-x="532" 
d="M464 0l-258 272l-112 -79v-193h-51v678h51v-426l343 245l90 -2l-280 -194l286 -301h-69z" />
    <glyph glyph-name="l" unicode="l" horiz-adv-x="136" 
d="M43 0v678h51v-678h-51z" />
    <glyph glyph-name="m" unicode="m" horiz-adv-x="817" 
d="M722 0l0.00195312 319c0 89.333 -43.333 134 -130 134c-48 0 -86.333 -13.333 -115 -40s-43 -62.334 -43 -107.001v-306h-51v319c0 89.333 -44.333 134 -133 134c-50 0 -89.333 -18.333 -118 -55c-25.333 -33.333 -38 -74.666 -38 -123.999v-274h-51v489h51v-64
c37.333 50 92.666 75 165.999 75c75.333 0 127.666 -28.667 156.999 -86c33.333 57.333 91 86 173 86c122 0 183 -57.333 183 -172v-328h-51z" />
    <glyph glyph-name="n" unicode="n" 
d="M429 0v319c0 43.333 -14 77 -42 101c-27.333 22 -64.666 33 -111.999 33c-56 0 -100.167 -16.5 -132.5 -49.5s-48.5 -76.167 -48.5 -129.5v-274h-51v489h51v-67c38.667 52 98.667 78 180 78c59.333 0 107.666 -14 144.999 -42c40.667 -30.667 61 -74 61 -130v-328h-51z
" />
    <glyph glyph-name="o" unicode="o" horiz-adv-x="545" 
d="M272 -11c-79.333 0 -142.167 23.668 -188.5 71.001s-69.5 108.666 -69.5 183.999c0 78 23.833 140.167 71.5 186.5s110.5 69.5 188.5 69.5s140.5 -23.167 187.5 -69.5s70.5 -108.5 70.5 -186.5s-23.833 -140 -71.5 -186s-110.5 -69 -188.5 -69zM272.999 453.001
c-64 0 -114.667 -18.833 -152 -56.5s-56 -88.5 -56 -152.5c0 -63.333 18.833 -113.833 56.5 -151.5s88.167 -56.5 151.5 -56.5s113.833 18.833 151.5 56.5s56.5 88.167 56.5 151.5c0 62.667 -18.333 113.167 -55 151.5s-87.667 57.5 -153 57.5z" />
    <glyph glyph-name="p" unicode="p" horiz-adv-x="564" 
d="M293 -18c-88.667 0 -155 31.999 -199 95.999v-246h-51v657h51v-85c44 64 110 96 198 96c79.333 0 141.333 -24.333 186 -73c42 -46.667 63 -108 63 -184c0 -79.333 -21.667 -142.666 -65 -189.999s-104.333 -71 -183 -71zM442 390.999
c-34.667 41.333 -82.668 62 -144.001 62c-62 0 -111.5 -19.167 -148.5 -57.5s-55.5 -88.833 -55.5 -151.5c0 -66.667 16.333 -118.334 49 -155.001c34.667 -40 86 -60 154 -60c62.667 0 111.334 20.667 146.001 62c32 38.667 48 89 48 151
c0 60.667 -16.333 110.334 -49 149.001z" />
    <glyph glyph-name="q" unicode="q" horiz-adv-x="564" 
d="M462 -168v242c-41.333 -61.333 -109.333 -92 -204 -92c-74.667 0 -134.667 25.667 -180 77c-42.667 48 -64 109.333 -64 184c0 73.333 22.167 134.5 66.5 183.5s104.833 73.5 181.5 73.5c90 0 156.667 -32 200 -96v85h51v-657h-51zM257 453
c-61.333 0 -109.332 -20.999 -143.999 -62.999c-32 -38 -48 -87.333 -48 -148s16.333 -110.334 49 -149.001c34.667 -42.667 82.667 -64 144 -64c67.333 0 118.666 19.667 153.999 59c34 36.667 51 88 51 154c0 62 -18.333 112.667 -55 152s-87 59 -151 59z" />
    <glyph glyph-name="r" unicode="r" horiz-adv-x="318" 
d="M138 373c-29.333 -46 -44 -105.001 -44 -177.001v-196h-51v489h51v-83c10 14.667 22.667 28.334 38 41.001c44 35.333 102.333 53 175 53v-47c-78 0 -134.333 -26.667 -169 -80z" />
    <glyph glyph-name="s" unicode="s" horiz-adv-x="486" 
d="M249 -13c-148.667 0 -222.997 66.6689 -222.997 200.002h53c0 -52.667 13.667 -91 41 -115s70.666 -36 129.999 -36c40 0 73 6.33301 99 19c32 16.667 48 41.334 48 74.001c0 40 -33.333 67.667 -100 83c-4.66699 1.33301 -38 6.66602 -100 15.999
c-100 15.333 -150 58.666 -150 129.999c0 46.667 20 83 60 109c34 22.667 75.667 34 125 34c143.333 0 215 -59.333 215 -178h-54c0 45.333 -12.333 78.166 -37 98.499s-64.334 30.5 -119.001 30.5c-36.667 0 -67.667 -7.33301 -93 -22c-29.333 -17.333 -44 -41.333 -44 -72
c0 -40 32.667 -65.667 98 -77c17.333 -3.33301 52.666 -9.66602 105.999 -18.999c97.333 -16.667 146 -61 146 -133c0 -50.667 -22 -88.334 -66 -113.001c-35.333 -19.333 -80.333 -29 -135 -29z" />
    <glyph glyph-name="t" unicode="t" horiz-adv-x="263" 
d="M156 420v-420h-49l-2 420h-99v47h99v147h51v-147h101v-47h-101z" />
    <glyph glyph-name="u" unicode="u" 
d="M429 -1l0.000976562 67.999c-39.333 -52 -99 -78 -179 -78c-62.667 0 -112.334 15 -149.001 45c-38.667 32.667 -58 78.334 -58 137.001v317h51v-316c0 -90.667 52 -136 156 -136c60 0 105.333 17.333 136 52c28.667 32.667 43 78 43 136v264h51v-489h-51z" />
    <glyph glyph-name="v" unicode="v" horiz-adv-x="471" 
d="M268 0h-46l-236 488h59l199 -423l186 423h56z" />
    <glyph glyph-name="w" unicode="w" horiz-adv-x="771" 
d="M560 0h-47l-123 267l-114 -267h-46l-225 488h58l189 -421l110 263l-74 158h59l188 -421l176 421h55z" />
    <glyph glyph-name="x" unicode="x" horiz-adv-x="467" 
d="M430 0l-197 216l-196 -216h-66l230 253l-209 235h66l175 -200l179 200h64l-209 -235l229 -253h-66z" />
    <glyph glyph-name="y" unicode="y" 
d="M241 -179c-59.333 0 -107.998 11.667 -145.998 35c-46.667 28 -71.667 75 -75 141h51c7.33301 -86 64.666 -129 171.999 -129c124 0 186 52 186 156v37c-39.333 -52.667 -99 -79 -179 -79c-62.667 0 -112.334 15.333 -149.001 46c-38.667 32.667 -58 78.667 -58 138v322
h51v-321c0 -92 52 -138 156 -138c60 0 105.333 17.667 136 53c28.667 33.333 43 79.333 43 138v268h51v-465c0 -134.667 -79.667 -202 -239 -202z" />
    <glyph glyph-name="z" unicode="z" horiz-adv-x="473" 
d="M13 0v42l360 399h-331v47h401v-41l-360 -400h377v-47h-447z" />
    <glyph glyph-name="braceleft" unicode="{" horiz-adv-x="350" 
d="M243 -168c-62 0 -92.999 35.668 -92.999 107.001v221c0 36.667 -5 61 -15 73c-6.66699 7.33301 -27 18.333 -61 33v35c17.333 7.33301 37.666 18 60.999 32c10 12 15 36.333 15 73v221c0 71.333 31 107 93 107h26v-48h-25c-19.333 0 -32 -8.33301 -38 -25
c-3.33301 -10 -5 -29.333 -5 -58v-199c0 -44 -7.33301 -75.667 -22 -95c-6.66699 -8.66699 -18 -17.334 -34 -26.001c16.667 -8.66699 28 -17 34 -25c14.667 -18.667 22 -50.667 22 -96v-198c0 -29.333 1.66699 -49 5 -59c6 -16.667 18.667 -25 38 -25h25v-48h-26z" />
    <glyph glyph-name="bar" unicode="|" horiz-adv-x="233" 
d="M91 -32v738h51v-738h-51z" />
    <glyph glyph-name="braceright" unicode="}" horiz-adv-x="350" 
d="M208 233c-10 -12 -15.001 -36.334 -15.001 -73.001v-221c0 -71.333 -31 -107 -93 -107h-26v48h25c19.333 0 32 8.33301 38 25c3.33301 10 5 29.667 5 59v198c0 45.333 7.33301 77.333 22 96c6 8 17.333 16.333 34 25c-16 8.66699 -27.333 17.334 -34 26.001
c-14.667 19.333 -22 51 -22 95v199c0 28.667 -1.66699 48 -5 58c-6 16.667 -18.667 25 -38 25h-25v48h26c62 0 93 -35.667 93 -107v-221c0 -40.667 6.33301 -66 19 -76c8.66699 -7.33301 27.667 -17 57 -29v-35c-17.333 -7.33301 -37.666 -18.333 -60.999 -33z" />
    <glyph glyph-name="asciitilde" unicode="~" horiz-adv-x="548" 
d="M380 351c-21.333 0 -59.667 9.99902 -115 29.999c-50.667 18.667 -83 28 -97 28c-36 0 -58 -19.667 -66 -59h-62c6 34.667 21 60.667 45 78s52.333 26 85 26c20 0 57.333 -10 112 -30c50.667 -19.333 83.334 -29 98.001 -29c37.333 0 59.666 20.333 66.999 61h62
c-6 -35.333 -21 -61.666 -45 -78.999s-52 -26 -84 -26z" />
    <glyph glyph-name="nonbreakingspace" unicode="&#xa0;" 
 />
    <glyph glyph-name="exclamdown" unicode="&#xa1;" horiz-adv-x="194" 
d="M98 472c-17.333 0 -26 8 -26 24v62c0 16.667 8.66699 25 26 25c16.667 0 25 -8.33301 25 -25v-62c0 -16 -8.33301 -24 -25 -24zM71 -95v512h51v-512h-51z" />
    <glyph glyph-name="cent" unicode="&#xa2;" 
d="M418 25c-40 -24.667 -87.9971 -37 -143.997 -37c-42 0 -79.667 6.66699 -113 20l-23 -44h-54l35 67c-67.333 46 -101 114.333 -101 205c0 80 23.5 144.5 70.5 193.5s112.5 73.5 196.5 73.5c23.333 0 45.666 -2.66699 66.999 -8l29 56h54l-37 -72
c51.333 -24.667 85.666 -68 102.999 -130l-47 -23c-14.667 54 -40.334 90.667 -77.001 110l-194 -385c26 -10.667 56 -16 90 -16c45.333 0 84.333 10.333 117 31c35.333 22 58 58.667 68 110l48 -21c-14 -58.667 -43.333 -102 -88 -130zM283.003 456
c-68 0 -120.666 -20.166 -157.999 -60.499s-56 -93.5 -56 -159.5c0 -70.667 23.667 -124.334 71 -161.001l190 376c-14.667 3.33301 -30.334 5 -47.001 5z" />
    <glyph glyph-name="sterling" unicode="&#xa3;" horiz-adv-x="584" 
d="M147 242c1.33301 -62.667 20.6641 -112.832 57.9971 -150.499s87.333 -56.5 150 -56.5s116.334 22.667 161.001 68l38 -31c-55.333 -56 -121.333 -84 -198 -84c-79.333 0 -142.166 23.333 -188.499 70s-70.166 108 -71.499 184h-77l8 47h69v74h-54l11 48h43v0
c0 78.667 23.667 141.667 71 189s110.333 71 189 71c76.667 0 142.334 -27.667 197.001 -83l-37 -33c-44.667 46 -98.334 69 -161.001 69c-64 0 -114.667 -19.333 -152 -58s-56 -90.334 -56 -155.001v0h298l-11 -48h-287v-74h272l-8 -47h-264z" />
    <glyph glyph-name="currency" unicode="&#xa4;" horiz-adv-x="584" 
d="M481 191l-100.999 84.001c-28.667 -18 -61.334 -27 -98.001 -27c-37.333 0 -70 9.33301 -98 28l-102 -85l-37 30l103 86c-20.667 23.333 -31 50 -31 80c0 31.333 10.667 58.666 32 81.999l-104 87l37 30l103 -86c28 17.333 60 26 96 26c36.667 0 69 -8.66699 97 -26
l103 86l37 -30l-103 -86c21.333 -24 32 -51.333 32 -82s-10.333 -58 -31 -82l102 -85zM282.001 481.001c-31.333 0 -58.334 -8.5 -81.001 -25.5s-34 -39.5 -34 -67.5s11.333 -50.833 34 -68.5s49.667 -26.5 81 -26.5c32 0 59.333 8.66699 82 26s34 40 34 68
c0 30 -12.333 53.667 -37 71c-21.333 15.333 -47.666 23 -78.999 23z" />
    <glyph glyph-name="yen" unicode="&#xa5;" horiz-adv-x="645" 
d="M349 328v-36h212v-47h-212v-74h212v-48h-212v-123h-51v123h-212v48h212v74h-212v47h212v36l-321 350h66l280 -304l281 304h65z" />
    <glyph glyph-name="brokenbar" unicode="&#xa6;" horiz-adv-x="233" 
d="M91 364v332h51v-332h-51zM91 -23v332h51v-332h-51z" />
    <glyph glyph-name="section" unicode="&#xa7;" horiz-adv-x="584" 
d="M404 145c52.667 -23.333 78.999 -59.6689 78.999 -109.002c0 -46 -20 -82.333 -60 -109c-34 -23.333 -75.333 -35 -124 -35c-142 0 -213 59.333 -213 178h51c0 -45.333 12.5 -78.5 37.5 -99.5s64.833 -31.5 119.5 -31.5c38.667 0 70 7.33301 94 22
c29.333 17.333 44 42.333 44 75c0 40.667 -26.333 66.334 -79 77.001l-155 30c-32.667 10 -59.667 26.667 -81 50c-24.667 26.667 -35.667 56 -33 88c4.66699 57.333 36 96 94 116c-52.667 23.333 -79 60 -79 110c0 46 20 82.333 60 109c34 23.333 75.333 35 124 35
c142.667 0 214 -59.667 214 -179h-51c0 46 -12.5 79.5 -37.5 100.5s-64.833 31.5 -119.5 31.5c-37.333 0 -68.666 -7.66699 -93.999 -23c-30 -17.333 -45 -42 -45 -74c0 -30.667 17.667 -53 53 -67c14 -5.33301 56.333 -15 127 -29c36 -3.33301 65.667 -11 89 -23
c54 -23.333 81 -61.666 81 -114.999c0 -63.333 -32 -106 -96 -128zM280.999 365.997c-80 0 -127.666 -23.001 -142.999 -69.001c-0.666992 -4 -1 -8.33301 -1 -13c0 -35.333 18.333 -62.666 55 -81.999c31.333 -16.667 67.666 -25 108.999 -25c40 0 73 6.66699 99 20
c32 16 48.333 40.667 49 74c-15.333 63.333 -71.333 95 -168 95z" />
    <glyph glyph-name="dieresis" unicode="&#xa8;" horiz-adv-x="214" 
d="M165 547c-16.667 0 -25 6.66699 -25 20v38c0 12.667 8.33301 19 25 19c17.333 0 26 -6.33301 26 -19v-38c0 -13.333 -8.66699 -20 -26 -20zM50 547c-17.333 0 -26 6.66699 -26 20v38c0 12.667 8.66699 19 26 19c16.667 0 25 -6.33301 25 -19v-38
c0 -13.333 -8.33301 -20 -25 -20z" />
    <glyph glyph-name="copyright" unicode="&#xa9;" horiz-adv-x="560" 
d="M285 236c-70 0 -128.999 18.333 -176.999 55c-53.333 40.667 -80 94.667 -80 162c0 66 26.667 119.667 80 161c49.333 38.667 107.666 58 174.999 58c68 0 126.667 -19 176 -57c54 -41.333 81 -95 81 -161s-26.667 -119.667 -80 -161c-48.667 -38 -107 -57 -175 -57z
M285.001 624c-54 0 -100.333 -14.667 -139 -44c-43.333 -32 -65 -74 -65 -126s21.333 -94 64 -126c38.667 -30 84.667 -45 138 -45c54 0 100.333 14.667 139 44c43.333 32 65 74 65 126s-21.333 94 -64 126c-38.667 30 -84.667 45 -138 45zM293.001 308
c-47.333 0 -86.001 12.833 -116.001 38.5s-45 60.5 -45 104.5c0 43.333 14.667 77.333 44 102s67 37 113 37c80.667 0 127.667 -39.333 141 -118h-54c-10 46.667 -39.333 70 -88 70c-31.333 0 -56.333 -8.16699 -75 -24.5s-28 -38.5 -28 -66.5
c0 -29.333 9.83301 -52.5 29.5 -69.5s45.834 -25.5 78.501 -25.5c40.667 0 68.667 24.333 84 73h56c-25.333 -80.667 -72 -121 -140 -121z" />
    <glyph glyph-name="ordfeminine" unicode="&#xaa;" horiz-adv-x="378" 
d="M297 348v32c-28 -25.333 -64.667 -38 -110 -38c-50 0 -89 15 -117 45s-42 67.667 -42 113c0 46.667 14.167 84.667 42.5 114s67.833 44 118.5 44c45.333 0 81.333 -12 108 -36v35h53v-309h-53zM187 611c-34 0 -60.167 -10.3311 -78.5 -30.998
s-27.5 -47.334 -27.5 -80.001s9 -59.334 27 -80.001s44.333 -31 79 -31c34 0 61 11 81 33c19.333 20 29 46 29 78c0 34 -9.33301 61 -28 81s-46 30 -82 30z" />
    <glyph glyph-name="guillemotleft" unicode="&#xab;" horiz-adv-x="391" 
d="M172 258v31l179 116v-53l-118 -78l118 -79v-50zM56 258v31l179 116v-53l-118 -78l118 -79v-50z" />
    <glyph glyph-name="logicalnot" unicode="&#xac;" horiz-adv-x="602" 
d="M504 134v126h-470v42h521v-168h-51z" />
    <glyph glyph-name="minus" unicode="&#xad;" horiz-adv-x="592" 
d="M35 231v19h507v-19h-507z" />
    <glyph glyph-name="minus" unicode="&#x2212;" horiz-adv-x="592" 
d="M35 231v19h507v-19h-507z" />
    <glyph glyph-name="registered" unicode="&#xae;" horiz-adv-x="543" 
d="M274 236c-68.667 0 -127.332 18.667 -175.999 56c-53.333 40.667 -80 94.334 -80 161.001c0 66 26.667 119.667 80 161c49.333 38.667 107.666 58 174.999 58c68 0 126.667 -19 176 -57c53.333 -40.667 80 -94.334 80 -161.001c0 -67.333 -26.333 -121.333 -79 -162
c-48 -37.333 -106.667 -56 -176 -56zM397.002 591c-34.667 22 -75.667 33 -123 33c-54 0 -100.333 -14.667 -139 -44c-42.667 -31.333 -64 -73.333 -64 -126c0 -51.333 20 -93 60 -125c38 -30.667 85.333 -46 142 -46c54 0 100.333 14.667 139 44
c42.667 31.333 64 73.333 64 126c0 35.333 -9.33301 66 -28 92c-12.667 18 -29.667 33.333 -51 46zM374.002 447c14.667 -12.667 22 -30.667 22 -54v-77h-54v76c0 20.667 -15 31 -45 31h-73v-107h-53v270h129c66 0 99 -26.333 99 -79c0 -25.333 -8.33301 -45.333 -25 -60z
M300.002 537h-76v-65h71c34 0 51 11.333 51 34c0 20.667 -15.333 31 -46 31z" />
    <glyph glyph-name="macron" unicode="&#xaf;" horiz-adv-x="313" 
d="M20 597v19h274v-19h-274z" />
    <glyph glyph-name="macron" unicode="&#x2c9;" horiz-adv-x="313" 
d="M20 597v19h274v-19h-274z" />
    <glyph glyph-name="degree" unicode="&#xb0;" horiz-adv-x="420" 
d="M210 385c-44 0 -82 12 -114 36c-34 26 -51 59 -51 99c0 39.333 17 72 51 98c31.333 24.667 69 37 113 37c44.667 0 82.667 -12 114 -36c34 -25.333 51 -58 51 -98c0 -41.333 -17.667 -75 -53 -101c-31.333 -23.333 -68.333 -35 -111 -35zM210 611
c-31.333 0 -58.333 -8.33203 -81 -24.999s-34 -38.334 -34 -65.001c0 -27.333 11.333 -49.5 34 -66.5s49.667 -25.5 81 -25.5c32 0 59.167 8.33301 81.5 25s33.5 38.667 33.5 66c0 29.333 -12.333 52.333 -37 69c-21.333 14.667 -47.333 22 -78 22z" />
    <glyph glyph-name="plusminus" unicode="&#xb1;" horiz-adv-x="630" 
d="M340 226v-164h-51v164h-191v46h191v161h51v-161h192v-46h-192zM99 -3v47h434v-47h-434z" />
    <glyph glyph-name="twosuperior" unicode="&#xb2;" horiz-adv-x="392" 
d="M21 256c0 46.667 12.668 86.667 38.001 120c19.333 24.667 49.666 49 90.999 73l108 61c26.667 16 40 31 40 45c0 39.333 -33.333 59 -100 59c-40.667 0 -70.167 -9 -88.5 -27s-27.5 -47 -27.5 -87h-54c0 108 55.333 162 166 162c104.667 0 157 -36.333 157 -109
c0 -34 -25.333 -64.667 -76 -92l-87 -46c-64 -34.667 -100.667 -72 -110 -112h293v-47h-350z" />
    <glyph glyph-name="threesuperior" unicode="&#xb3;" horiz-adv-x="426" 
d="M218 252c-52.667 0 -95.667 10.332 -129 30.999c-39.333 24.667 -59 61.334 -59 110.001v24h55v-33c0 -28 14 -49.667 42 -65c23.333 -12.667 52.333 -19 87 -19c34 0 62.333 5.33301 85 16c28.667 13.333 43 33 43 59c0 48 -38.333 72 -115 72h-51v48h52
c70.667 0 106 20.333 106 61c0 38.667 -37 58 -111 58c-44 0 -75.833 -8.5 -95.5 -25.5s-29.5 -44.5 -29.5 -82.5h-54c0 104 59.333 156 178 156c42 0 77.667 -7 107 -21c39.333 -18.667 59 -47 59 -85c0 -38.667 -17 -67 -51 -85c39.333 -19.333 59 -51.333 59 -96
c0 -42 -20 -74 -60 -96c-32.667 -18 -72 -27 -118 -27z" />
    <glyph glyph-name="acute" unicode="&#xb4;" horiz-adv-x="212" 
d="M69 536c-6 -4.66699 -12.667 -7 -20 -7c-18 0 -27 6.66699 -27 20c0 5.33301 2.66699 10.333 8 15l113 101c6 5.33301 13 8 21 8c17.333 0 26 -7 26 -21c0 -6 -2.66699 -11.333 -8 -16z" />
    <glyph glyph-name="mu1" unicode="&#xb5;" 
d="M321 -15c-15.333 -2 -31.333 -2.99902 -48 -2.99902c-80.667 0 -140.334 26 -179.001 78v-231h-51v659h51v-268c0 -58.667 14.333 -104.334 43 -137.001c30.667 -36 76 -54 136 -54c104 0 156 46.333 156 139v320h51v-321c0 -76 -29.667 -129 -89 -159
c-8.66699 -4.66699 -13 -11 -13 -19c0 -22 27 -33 81 -33v-51c-37.333 0 -67.666 5.66699 -90.999 17c-31.333 15.333 -47 36.333 -47 63z" />
    <glyph glyph-name="paragraph" unicode="&#xb6;" horiz-adv-x="496" 
d="M398 -133v764.001h-56v-764h-51v371c-66.667 -0.666992 -123.334 19 -170.001 59c-49.333 42 -74 95.667 -74 161c0 67.333 27 121.666 81 162.999c49.333 38.667 108.333 58 177 58c2.66699 0 5.33398 -0.333008 8.00098 -1h136v-811h-51z" />
    <glyph glyph-name="periodcentered" unicode="&#xb7;" horiz-adv-x="209" 
d="M119 280c-17.333 0 -26 7 -26 21v46c0 13.333 8.66699 20 26 20c16.667 0 25 -6.66699 25 -20v-46c0 -14 -8.33301 -21 -25 -21z" />
    <glyph glyph-name="periodcentered" unicode="&#x2219;" horiz-adv-x="209" 
d="M119 280c-17.333 0 -26 7 -26 21v46c0 13.333 8.66699 20 26 20c16.667 0 25 -6.66699 25 -20v-46c0 -14 -8.33301 -21 -25 -21z" />
    <glyph glyph-name="cedilla" unicode="&#xb8;" horiz-adv-x="259" 
d="M123 -174c-26 0 -63.333 6.33301 -112 19l24 40c36 -10.667 64.333 -16 85 -16c44 0 66 10 66 30c0 12 -15.333 19 -46 21c-18 1.33301 -35.667 -1.66699 -53 -9v26l9 72h50l-2 -46c64.667 0 97 -22.333 97 -67c0 -46.667 -39.333 -70 -118 -70z" />
    <glyph glyph-name="onesuperior" unicode="&#xb9;" horiz-adv-x="287" 
d="M168 260v323l-91 -54h-94l200 124h41v-393h-56z" />
    <glyph glyph-name="ordmasculine" unicode="&#xba;" horiz-adv-x="413" 
d="M205 350c-51.333 0 -93.167 13.833 -125.5 41.5s-48.5 64.834 -48.5 111.501c0 47.333 17 85 51 113c32 26.667 74 40 126 40c51.333 0 93.333 -13.833 126 -41.5s49 -64.834 49 -111.501c0 -48.667 -18 -87 -54 -115c-32.667 -25.333 -74 -38 -124 -38zM205.999 614
c-37.333 0 -67.667 -10.1689 -91 -30.502s-35 -47.166 -35 -80.499c0 -34 11.5 -61 34.5 -81s53.5 -30 91.5 -30c38.667 0 69.667 9.83301 93 29.5s35 46.834 35 81.501c0 36 -12.167 63.5 -36.5 82.5s-54.833 28.5 -91.5 28.5z" />
    <glyph glyph-name="guillemotright" unicode="&#xbb;" horiz-adv-x="381" 
d="M172 145v50l118 79l-118 78v53l179 -116v-31zM56 145v50l118 79l-118 78v53l179 -116v-31z" />
    <glyph glyph-name="onequarter" unicode="&#xbc;" horiz-adv-x="816" 
d="M679 131v-131h-50v131h-274l169 279h56l-142 -234h191v235l50 -2v-233h92v-45h-92zM231 0h-54l348 694h54zM191 252v336l-94 -58h-86l191 123h40v-401h-51z" />
    <glyph glyph-name="onehalf" unicode="&#xbd;" horiz-adv-x="803" 
d="M423 0c1.33301 86 47 153.331 137 201.998l88 48c34.667 22.667 52 41.334 52 56.001c0 42.667 -34 64 -102 64c-40.667 0 -70.5 -9.33301 -89.5 -28s-28.5 -49 -28.5 -91h-49c0.666992 108.667 55 163 163 163c102.667 0 154 -36.667 154 -110
c0 -34 -23 -63.333 -69 -88l-89 -51c-68 -39.333 -106 -79.666 -114 -120.999h292v-44h-345zM220 -0.00195312h-54l349 694h54zM180 251.998v336l-93 -58h-87l191 123h40v-401h-51z" />
    <glyph glyph-name="threequarters" unicode="&#xbe;" horiz-adv-x="906" 
d="M770 131v-131h-50v131h-274l170 279h56l-143 -234h191v235l50 -2v-233h92v-45h-92zM322 0h-54l349 694h54zM229 244c-123.333 0 -184.999 47.334 -184.999 142.001v23h49v-31c0 -30.667 14.333 -53.667 43 -69c24 -13.333 54 -20 90 -20c34 0 63 5.66699 87 17
c29.333 14 44 34.667 44 62c0 52 -39.667 78 -119 78h-48v44h49c72.667 0 109 21.333 109 64c0 42 -38 63 -114 63c-44 0 -76.167 -8.83301 -96.5 -26.5s-30.5 -45.834 -30.5 -84.501h-49c1.33301 103.333 59.666 155 174.999 155c42.667 0 78 -6.66699 106 -20
c38.667 -18.667 58 -47.667 58 -87s-19 -68.333 -57 -87c44 -20.667 66 -53.667 66 -99c0 -42 -20 -74 -60 -96c-32.667 -18.667 -71.667 -28 -117 -28z" />
    <glyph glyph-name="questiondown" unicode="&#xbf;" 
d="M256 488c-16.667 0 -25 8 -25 24v62c0 16.667 8.33301 25 25 25c17.333 0 26 -8.33301 26 -25v-62c0 -16 -8.66699 -24 -26 -24zM405 -50c-41.333 -30 -94.333 -45 -159 -45c-58.667 0 -108.334 12.667 -149.001 38c-48 30 -72 73 -72 129c0 42 17.667 82.333 53 121
l99 93c35.333 36.667 53 73.667 53 111v37h52v-33c0 -66 -34.667 -126.667 -104 -182c-39.333 -31.333 -65.666 -56 -78.999 -74c-15.333 -21.333 -23 -45.666 -23 -72.999c0 -41.333 18 -72.333 54 -93c30.667 -18 69.667 -27 117 -27c59.333 0 104.5 13.833 135.5 41.5
s49.5 72.5 55.5 134.5l48 -29c-9.33301 -66.667 -36.333 -116.334 -81 -149.001z" />
    <glyph glyph-name="Agrave" unicode="&#xc0;" horiz-adv-x="676" 
d="M412 695c-11.333 -7.33301 -22.667 -6 -34 4l-114 119c-5.33301 5.33301 -8 11 -8 17c0 7.33301 3.66699 13.333 11 18c4.66699 4 9.66699 6 15 6c7.33301 0 14 -3.33301 20 -10l114 -118c5.33301 -5.33301 8 -11.333 8 -18c0 -7.33301 -4 -13.333 -12 -18zM617.999 0
l-97 215h-362l-99 -215h-58l318 684h47l307 -684h-56zM343.999 610l-163 -347h319z" />
    <glyph glyph-name="Aacute" unicode="&#xc1;" horiz-adv-x="676" 
d="M303 701c-6 -6 -12.667 -9 -20 -9c-17.333 0 -26 8 -26 24c0 6 2.33301 11.667 7 17l114 118c6 6.66699 12.667 10 20 10c16.667 0 25 -8 25 -24c0 -6 -2.33301 -11.667 -7 -17zM618 0l-97 215h-362l-99 -215h-58l318 684h47l307 -684h-56zM344 610l-163 -347h319z" />
    <glyph glyph-name="Acircumflex" unicode="&#xc2;" horiz-adv-x="676" 
d="M417 687l-78 103l-78 -103h-58l118 160h37l121 -160h-62zM618 0l-97 215h-362l-99 -215h-58l318 684h47l307 -684h-56zM344 609l-163 -346h319z" />
    <glyph glyph-name="Atilde" unicode="&#xc3;" horiz-adv-x="676" 
d="M415 701c-14 0 -39.334 9.33203 -76.001 27.999c-33.333 16.667 -53.333 25 -60 25c-8.66699 0 -16.5 -4.16699 -23.5 -12.5s-11.167 -26.166 -12.5 -53.499l-47 30c0 26 8.83301 46.333 26.5 61s37.167 22 58.5 22c12.667 0 37.334 -9.33301 74.001 -28
c33.333 -16.667 53.333 -25 60 -25c8.66699 0 16.667 4.16699 24 12.5s11.666 25.5 12.999 51.5l47 -26c-2 -26.667 -11.167 -47.5 -27.5 -62.5s-35.166 -22.5 -56.499 -22.5zM617.999 -0.000976562l-97 215h-362l-99 -215h-58l318 683h47l307 -683h-56zM343.999 607.999
l-163 -346h319z" />
    <glyph glyph-name="Adieresis" unicode="&#xc4;" horiz-adv-x="676" 
d="M398 696c-16.667 0 -25 8.33301 -25 25v53c0 16.667 8.33301 25 25 25c17.333 0 26 -8.33301 26 -25v-53c0 -16.667 -8.66699 -25 -26 -25zM283 696c-17.333 0 -26 8.33301 -26 25v53c0 16.667 8.66699 25 26 25c16.667 0 25 -8.33301 25 -25v-53
c0 -16.667 -8.33301 -25 -25 -25zM618 0l-97 215h-362l-99 -215h-58l318 682h47l307 -682h-56zM344 608l-163 -346h319z" />
    <glyph glyph-name="Aring" unicode="&#xc5;" horiz-adv-x="676" 
d="M339 703c-25.333 0 -47.166 7.83301 -65.499 23.5s-27.5 36.167 -27.5 61.5c0 24.667 9.16699 45 27.5 61s40.166 24 65.499 24c26 0 48 -7.83301 66 -23.5s27 -36.167 27 -61.5s-9 -45.833 -27 -61.5s-40 -23.5 -66 -23.5zM618 0l-97 216h-362l-99 -216h-58l318 685h47
l307 -685h-56zM339 823c-26.667 0 -40 -11.667 -40 -35c0 -24 13.333 -36 40 -36c27.333 0 41 12 41 36c0 23.333 -13.667 35 -41 35zM344 610l-163 -347h319z" />
    <glyph glyph-name="AE" unicode="&#xc6;" horiz-adv-x="1077" 
d="M575 0v330h-253l-303 -330h-65l623 678h464v-47h-414v-254h46v-1h315v-46h-361l1 -283h418v-47h-471zM366 377h209l2 227z" />
    <glyph glyph-name="Ccedilla" unicode="&#xc7;" horiz-adv-x="719" 
d="M646 527c-50.667 73.333 -132 109.999 -244 109.999c-96 0 -172.5 -27.167 -229.5 -81.5s-85.5 -127.833 -85.5 -220.5c0 -91.333 27.167 -164.166 81.5 -218.499s128.5 -81.5 222.5 -81.5c107.333 0 189.333 37.333 246 112l43 -27
c-66.667 -88.667 -162.667 -133 -288 -133c-109.333 0 -196 31 -260 93s-96 145.667 -96 251c0 108 33 194 99 258s155 96 267 96c130 0 225.667 -43.667 287 -131zM374 -174.001c-26 0 -63.667 7 -113 21l25 44c36 -11.333 64.333 -17 85 -17c43.333 0 65 11.333 65 34
c0 13.333 -15 21.333 -45 24c-18 2 -35.667 -1.33301 -53 -10v29l8 81h51l-2 -52c64.667 0 97 -25.333 97 -76c0 -52 -39.333 -78 -118 -78z" />
    <glyph glyph-name="Egrave" unicode="&#xc8;" horiz-adv-x="564" 
d="M355 686c-12.667 -8.66699 -24.667 -7.33496 -36 3.99805l-113 118c-5.33301 5.33301 -8 11.333 -8 18s3.66699 12.334 11 17.001c12 10 23.667 9 35 -3l114 -118c4.66699 -5.33301 7 -11 7 -17c0 -7.33301 -3.33301 -13.666 -10 -18.999zM42 -0.000976562v684h516v-48
h-466v-256h413v-47h-413v-285h471v-48h-521z" />
    <glyph glyph-name="Eacute" unicode="&#xc9;" horiz-adv-x="564" 
d="M245 690c-6 -6 -12.666 -9 -19.999 -9c-17.333 0 -26 8 -26 24c0 6 2.33301 11.667 7 17l114 118c5.33301 6 11.666 9 18.999 9c18 0 27 -8 27 -24c0 -6 -2.66699 -11.667 -8 -17zM42.001 0v684h516v-48h-466v-256h413v-47h-413v-285h471v-48h-521z" />
    <glyph glyph-name="Ecircumflex" unicode="&#xca;" horiz-adv-x="564" 
d="M358 697l-78 103l-78 -103h-58l118 160h37l122 -160h-63zM42 0v684h516v-47h-466v-257h413v-47h-413v-285h471v-48h-521z" />
    <glyph glyph-name="Edieresis" unicode="&#xcb;" horiz-adv-x="564" 
d="M340 704c-17.333 0 -26 8.33301 -26 25v53c0 16.667 8.66699 25 26 25c16.667 0 25 -8.33301 25 -25v-53c0 -16.667 -8.33301 -25 -25 -25zM224 704c-16.667 0 -25 8.33301 -25 25v53c0 16.667 8.33301 25 25 25c17.333 0 26 -8.33301 26 -25v-53
c0 -16.667 -8.66699 -25 -26 -25zM42 0v683h516v-48h-466v-256h413v-46h-413v-286h471v-47h-521z" />
    <glyph glyph-name="Igrave" unicode="&#xcc;" horiz-adv-x="134" 
d="M140 701c-13.333 -8.66699 -25.333 -7.33203 -36 4.00098l-113 118c-5.33301 5.33301 -8 11 -8 17c0 7.33301 3.66699 13.666 11 18.999c12.667 9.33301 24.667 8 36 -4l113 -118c4.66699 -5.33301 7 -11 7 -17c0 -8 -3.33301 -14.333 -10 -19zM42 0.00195312v684h51
v-684h-51z" />
    <glyph glyph-name="Iacute" unicode="&#xcd;" horiz-adv-x="134" 
d="M30 701c-5.33301 -6 -12 -9 -20 -9c-18 0 -27 8 -27 24c0 6 2.66699 11.667 8 17l113 118c6 6.66699 13 10 21 10c17.333 0 26 -8 26 -24c0 -6 -2.66699 -11.667 -8 -17zM42 0v684h51v-684h-51z" />
    <glyph glyph-name="Icircumflex" unicode="&#xce;" horiz-adv-x="134" 
d="M144 693l-78 103l-80 -103h-57l118 160h37l122 -160h-62zM42 0v684h51v-684h-51z" />
    <glyph glyph-name="Idieresis" unicode="&#xcf;" horiz-adv-x="134" 
d="M125 711c-16.667 0 -25 8.66699 -25 26v53c0 16 8.33301 24 25 24c16 0 24.667 -8 26 -24v-53c0 -17.333 -8.66699 -26 -26 -26zM10 711c-18 0 -26.999 8.66699 -26.999 26v53c0 16 9 24 27 24c15.333 0 23.666 -8 24.999 -24v-53c0 -17.333 -8.33301 -26 -25 -26z
M42.001 0v683h51v-683h-51z" />
    <glyph glyph-name="Eth" unicode="&#xd0;" horiz-adv-x="680" 
d="M277 0h-235v316h-37v48h37v314h273c111.333 0 196 -30.333 254 -91c55.333 -58.667 83 -141.667 83 -249c0 -110.667 -35.333 -195.667 -106 -255c-66 -55.333 -155.667 -83 -269 -83zM532 553c-48.667 52 -121.332 78 -217.999 78h-221v-267h198v-48h-198v-269h187
c101.333 0 180.166 24.667 236.499 74s84.5 121.666 84.5 216.999c0 94.667 -23 166.334 -69 215.001z" />
    <glyph glyph-name="Ntilde" unicode="&#xd1;" horiz-adv-x="680" 
d="M408 695c-14 0 -39.333 9.33301 -76 28c-33.333 16.667 -53.333 25 -60 25c-8.66699 0 -16.5 -4.16699 -23.5 -12.5s-11.167 -26.166 -12.5 -53.499l-47 30c0 25.333 9 45.5 27 60.5s37 22.5 57 22.5c13.333 0 38.333 -9.33301 75 -28c33.333 -16.667 53.333 -25 60 -25
c8.66699 0 16.667 4.16699 24 12.5s11.666 25.166 12.999 50.499l47 -24c-2 -26.667 -11.167 -47.667 -27.5 -63s-35.166 -23 -56.499 -23zM585 0l-492 606v-606h-51v682h53l246 -303l246 -300v603h51v-682h-53z" />
    <glyph glyph-name="Ograve" unicode="&#xd2;" horiz-adv-x="757" 
d="M451 699c-12 -8 -23.334 -6.66699 -34.001 4l-114 118c-5.33301 6.66699 -8 13 -8 19c0 14 9 21 27 21c8.66699 0 15.334 -2.66699 20.001 -8l113 -118c4.66699 -5.33301 7 -11 7 -17c0 -8 -3.66699 -14.333 -11 -19zM378.999 -7c-112 0 -199.833 31 -263.5 93
s-95.5 147.333 -95.5 256c0 107.333 32 190.666 96 249.999s151.667 89 263 89s199.166 -29.667 263.499 -89s96.5 -142.666 96.5 -249.999c0 -108 -32.167 -193.167 -96.5 -255.5s-152.166 -93.5 -263.499 -93.5zM378.999 634c-96.667 0 -172.167 -25.5 -226.5 -76.5
s-81.5 -122.833 -81.5 -215.5s27.333 -166 82 -220s130 -81 226 -81c97.333 0 173.166 26.667 227.499 80s81.5 127 81.5 221c0 93.333 -27.167 165.333 -81.5 216s-130.166 76 -227.499 76z" />
    <glyph glyph-name="Oacute" unicode="&#xd3;" horiz-adv-x="757" 
d="M340 706c-6.66699 -5.33301 -13 -8 -19 -8c-17.333 0 -26 7.66699 -26 23c0 6.66699 2.66699 12.334 8 17.001l113 119c10 11.333 22 12.666 36 3.99902c7.33301 -4.66699 11 -10.667 11 -18c0 -6.66699 -2.66699 -12.667 -8 -18zM379 -7c-112 0 -199.833 31 -263.5 93
s-95.5 147.333 -95.5 256c0 107.333 32 190.666 96 249.999s151.667 89 263 89s199.166 -29.667 263.499 -89s96.5 -142.666 96.5 -249.999c0 -108 -32.167 -193.167 -96.5 -255.5s-152.166 -93.5 -263.499 -93.5zM379 634c-96.667 0 -172.167 -25.5 -226.5 -76.5
s-81.5 -122.833 -81.5 -215.5s27.333 -166 82 -220s130 -81 226 -81c97.333 0 173.166 26.667 227.499 80s81.5 127 81.5 221c0 93.333 -27.167 165.333 -81.5 216s-130.166 76 -227.499 76z" />
    <glyph glyph-name="Ocircumflex" unicode="&#xd4;" horiz-adv-x="757" 
d="M456 705l-79 102l-79 -102h-57l117 159h36l123 -159h-61zM379 -7c-112 0 -199.833 31 -263.5 93s-95.5 147.333 -95.5 256c0 107.333 32 190.666 96 249.999s151.667 89 263 89s199.166 -29.667 263.499 -89s96.5 -142.666 96.5 -249.999
c0 -108 -32.167 -193.167 -96.5 -255.5s-152.166 -93.5 -263.499 -93.5zM379 634c-96.667 0 -172.167 -25.5 -226.5 -76.5s-81.5 -122.833 -81.5 -215.5s27.333 -166 82 -220s130 -81 226 -81c97.333 0 173.166 26.667 227.499 80s81.5 127 81.5 221
c0 93.333 -27.167 165.333 -81.5 216s-130.166 76 -227.499 76z" />
    <glyph glyph-name="Otilde" unicode="&#xd5;" horiz-adv-x="757" 
d="M448 716c-13.333 0 -38.3311 9.33301 -74.998 28c-33.333 16.667 -53.333 25 -60 25c-21.333 0 -34 -22 -38 -66l-45 30c0 25.333 9 45.5 27 60.5s37 22.5 57 22.5c13.333 0 38.333 -9.33301 75 -28c33.333 -16.667 53 -25 59 -25c9.33301 0 17.666 4.16699 24.999 12.5
s11.666 25.5 12.999 51.5l47 -26c-3.33301 -26.667 -13 -47.5 -29 -62.5s-34.667 -22.5 -56 -22.5zM379.002 -7c-112 0 -199.833 30.999 -263.5 92.999s-95.5 147 -95.5 255c0 107.333 32 190.666 96 249.999s151.667 89 263 89s199.166 -29.667 263.499 -89
s96.5 -142.666 96.5 -249.999s-32.167 -192.166 -96.5 -254.499s-152.166 -93.5 -263.499 -93.5zM379.002 632.999c-96.667 0 -172.167 -25.498 -226.5 -76.498s-81.5 -122.833 -81.5 -215.5s27.333 -165.834 82 -219.501s130 -80.5 226 -80.5
c97.333 0 173.166 26.667 227.499 80s81.5 126.666 81.5 219.999s-27.167 165.333 -81.5 216s-130.166 76 -227.499 76z" />
    <glyph glyph-name="Odieresis" unicode="&#xd6;" horiz-adv-x="757" 
d="M437 711c-17.333 0 -25.999 8.66699 -25.999 26v53c0 16 8.66699 24 26 24c15.333 0 23.666 -8 24.999 -24v-53c0 -17.333 -8.33301 -26 -25 -26zM321.001 711c-16.667 0 -25 8.66699 -25 26v53c0 16 8.33301 24 25 24c16 0 24.667 -8 26 -24v-53
c0 -17.333 -8.66699 -26 -26 -26zM379.001 -7c-112 0 -199.833 30.999 -263.5 92.999s-95.5 147 -95.5 255c0 107.333 32 190.666 96 249.999s151.667 89 263 89s199.166 -29.667 263.499 -89s96.5 -142.666 96.5 -249.999s-32.167 -192.166 -96.5 -254.499
s-152.166 -93.5 -263.499 -93.5zM379.001 631.999c-96.667 0 -172.167 -25.3291 -226.5 -75.9961s-81.5 -122.334 -81.5 -215.001s27.333 -165.834 82 -219.501s130 -80.5 226 -80.5c97.333 0 173.166 26.667 227.499 80s81.5 126.666 81.5 219.999
s-27.167 165.166 -81.5 215.499s-130.166 75.5 -227.499 75.5z" />
    <glyph glyph-name="multiply" unicode="&#xd7;" horiz-adv-x="490" 
d="M381 109l-136 111l-136 -109l-36 30l134 111l-134 109l38 31l134 -110l135 110l38 -32l-135 -108l136 -113z" />
    <glyph glyph-name="Oslash" unicode="&#xd8;" horiz-adv-x="757" 
d="M379 -8c-50.667 0 -96.333 6.66699 -137 20l-21 -41h-54l30 59c-32.667 16 -61.334 37 -86.001 63c-60.667 63.333 -91 145.333 -91 246c0 106.667 32 189.5 96 248.5s151.667 88.5 263 88.5c50 0 95 -5.66699 135 -17l23 45h54l-31 -62
c119.333 -56.667 179 -157.667 179 -303c0 -107.333 -32.167 -192 -96.5 -254s-152.166 -93 -263.499 -93zM537.001 598l-271.999 -541.998c34 -11.333 72 -17 114 -17c97.333 0 173.166 26.667 227.499 80s81.5 126.666 81.5 219.999
c0 127.333 -50.333 213.666 -151 258.999zM379.002 629.002c-96.667 0 -172.166 -25.332 -226.499 -75.999s-81.5 -122 -81.5 -214c0 -86.667 26 -157.334 78 -212.001c21.333 -22.667 44.666 -40 69.999 -52l273 540c-34 9.33301 -71.667 14 -113 14z" />
    <glyph glyph-name="Ugrave" unicode="&#xd9;" horiz-adv-x="664" 
d="M405 691c-10.667 -7.33301 -22.333 -6.33398 -35 2.99902l-114 120c-5.33301 5.33301 -8 11 -8 17c0 6.66699 3.66699 12.667 11 18c12.667 9.33301 24.667 8 36 -4l113 -117c5.33301 -6 8 -12 8 -18c0 -7.33301 -3.66699 -13.666 -11 -18.999zM546.001 53.999
c-47.333 -40.667 -118.666 -61 -213.999 -61c-96.667 0 -168.334 20.333 -215.001 61c-50 43.333 -75 111.333 -75 204v426h51v-425c0 -145.333 79.667 -218 239 -218c158.667 0 238 71.333 238 214v429h51v-428c0 -92 -25 -159.333 -75 -202z" />
    <glyph glyph-name="Uacute" unicode="&#xda;" horiz-adv-x="664" 
d="M294 697c-6 -5.33301 -12.667 -8 -20 -8c-17.333 0 -26 7.66699 -26 23c0 6 2.66699 12 8 18l113 117c6 6.66699 13 10 21 10c17.333 0 26 -8 26 -24c0 -6 -2.66699 -11.667 -8 -17zM546 54c-47.333 -40.667 -118.666 -61 -213.999 -61
c-96.667 0 -168.334 20.333 -215.001 61c-50 43.333 -75 111.333 -75 204v426h51v-425c0 -145.333 79.667 -218 239 -218c158.667 0 238 71.333 238 214v429h51v-428c0 -92 -25 -159.333 -75 -202z" />
    <glyph glyph-name="Ucircumflex" unicode="&#xdb;" horiz-adv-x="664" 
d="M410 695l-80 103l-78 -103h-58l118 160h37l122 -160h-61zM546 54c-47.333 -40.667 -118.666 -61 -213.999 -61c-96.667 0 -168.334 20.333 -215.001 61c-50 43.333 -75 111.333 -75 204v426h51v-425c0 -145.333 79.667 -218 239 -218c158.667 0 238 71.333 238 214v429
h51v-428c0 -92 -25 -159.333 -75 -202z" />
    <glyph glyph-name="Udieresis" unicode="&#xdc;" horiz-adv-x="664" 
d="M390 711c-17.333 0 -26 8.66699 -26 26v53c0 16 8.66699 24 26 24c16.667 0 25 -8 25 -24v-53c0 -17.333 -8.33301 -26 -25 -26zM274 711c-16.667 0 -25 8.66699 -25 26v53c0 16 8.33301 24 25 24c17.333 0 26 -8 26 -24v-53c0 -17.333 -8.66699 -26 -26 -26zM546 54
c-47.333 -40.667 -118.666 -61.001 -213.999 -61.001c-96.667 0 -168.334 20.333 -215.001 61c-50 42.667 -75 110.334 -75 203.001v426h51v-425c0 -144.667 79.667 -217 239 -217c158.667 0 238 71 238 213v429h51v-428c0 -91.333 -25 -158.333 -75 -201z" />
    <glyph glyph-name="Yacute" unicode="&#xdd;" horiz-adv-x="657" 
d="M292 701c-6 -6 -12.667 -9 -20 -9c-17.333 0 -26 8 -26 24c0 6 2.33301 11.667 7 17l114 118c6 6.66699 13 10 21 10c17.333 0 26 -8 26 -24c0 -6 -2.66699 -11.667 -8 -17zM355 331v-331h-51v331l-321 353h66l280 -306l281 306h65z" />
    <glyph glyph-name="Thorn" unicode="&#xde;" horiz-adv-x="425" 
d="M235 168h-141v-168h-51v678h51v-147h142c99.333 0 149 -61.333 149 -184c0 -119.333 -50 -179 -150 -179zM235 483h-141v-270l142 1c64.667 0 97 44.333 97 133c0 90.667 -32.667 136 -98 136z" />
    <glyph glyph-name="germandbls" unicode="&#xdf;" horiz-adv-x="505" 
d="M409 24c-48 -36 -118.665 -54.001 -211.998 -54.001v47c162 0 243 62.333 243 187c0 60 -22.333 106.333 -67 139c-42 31.333 -100.667 47 -176 47v48c70.667 0 119 5 145 15c38.667 14.667 58 42.667 58 84c0 42.667 -15 71.667 -45 87c-24 12.667 -64 19 -120 19
c-94 0 -141 -44.667 -141 -134v-510h-51v391h-35v49h35c0 29.333 1 61.333 3 96c5.33301 103.333 69 155 191 155c145.333 0 216.666 -49.333 213.999 -148c-2 -67.333 -34.333 -110.666 -97 -129.999c27.333 -12 52.666 -31 75.999 -57c40.667 -44.667 61 -95 61 -151
c0 -79.333 -27.333 -139.333 -82 -180z" />
    <glyph glyph-name="agrave" unicode="&#xe0;" horiz-adv-x="552" 
d="M325 510c-11.333 -7.33301 -22.667 -6.00098 -34 3.99902l-114 117c-5.33301 6 -8 12 -8 18c0 7.33301 3.66699 13.333 11 18c4.66699 4 9.66699 6 15 6c8 0 15 -3.33301 21 -10l113 -117c4.66699 -5.33301 7 -11 7 -17c0 -7.33301 -3.66699 -13.666 -11 -18.999z
M462.999 -0.000976562l0.00195312 88c-44.667 -66 -112.334 -99 -203.001 -99c-77.333 0 -138.333 25 -183 75c-42 47.333 -63 108.333 -63 183c0 76 21.333 137.667 64 185c44.667 50 106.667 75 186 75c89.333 0 155.666 -32 198.999 -96v94h51v-505h-51zM412.001 400.999
c-36 39.333 -87.002 59 -153.002 59c-61.333 0 -109.666 -21 -144.999 -63c-33.333 -39.333 -50 -89.333 -50 -150c0 -62 16.333 -112 49 -150c34.667 -40.667 83.334 -61 146.001 -61c62 0 111.667 20.667 149 62c36.667 39.333 55 89 55 149c0 64.667 -17 116 -51 154z
" />
    <glyph glyph-name="aacute" unicode="&#xe1;" horiz-adv-x="552" 
d="M226 514c-6.66699 -5.33301 -13 -8 -19 -8c-17.333 0 -26 7.66699 -26 23c0 6 2.66699 11.667 8 17l113 117c6 6.66699 13 10 21 10c16.667 0 25 -7.66699 25 -23c0 -6.66699 -2.33301 -12.667 -7 -18zM475 0l0.00195312 88c-44.667 -66 -112.334 -99 -203.001 -99
c-77.333 0 -138.333 25 -183 75c-42 47.333 -63 108.333 -63 183c0 76 21.333 137.667 64 185c44.667 50 106.667 75 186 75c89.333 0 155.666 -32 198.999 -96v94h51v-505h-51zM424.002 401c-36 39.333 -87.002 59 -153.002 59c-61.333 0 -109.666 -21 -144.999 -63
c-33.333 -39.333 -50 -89.333 -50 -150c0 -62 16.333 -112 49 -150c34.667 -40.667 83.334 -61 146.001 -61c62 0 111.667 20.667 149 62c36.667 39.333 55 89 55 149c0 64.667 -17 116 -51 154z" />
    <glyph glyph-name="acircumflex" unicode="&#xe2;" horiz-adv-x="552" 
d="M342 517l-79 100l-79 -100h-57l117 157h36l123 -157h-61zM475 0l0.00195312 88c-44.667 -66 -112.334 -99 -203.001 -99c-77.333 0 -138.333 25 -183 75c-42 47.333 -63 108.333 -63 183c0 76 21.333 137.667 64 185c44.667 50 106.667 75 186 75
c89.333 0 155.666 -32 198.999 -96v94h51v-505h-51zM424.002 401c-36 39.333 -87.002 59 -153.002 59c-61.333 0 -109.666 -21 -144.999 -63c-33.333 -39.333 -50 -89.333 -50 -150c0 -61.333 16.333 -111.333 49 -150c34.667 -40.667 83.334 -61 146.001 -61
c62 0 111.667 20.667 149 62c36.667 39.333 55 89 55 149c0 64.667 -17 116 -51 154z" />
    <glyph glyph-name="atilde" unicode="&#xe3;" horiz-adv-x="552" 
d="M333 527c-14 0 -39.3311 9.00098 -75.998 27.001c-33.333 16.667 -53 25 -59 25c-21.333 0 -34 -21.667 -38 -65l-45 30c0 24.667 9 44.5 27 59.5s37 22.5 57 22.5c13.333 0 38.333 -9.33301 75 -28c33.333 -16 53 -24 59 -24c9.33301 0 17.666 4 24.999 12
s11.666 25 12.999 51l47 -26c-3.33301 -26.667 -13 -47.334 -29 -62.001s-34.667 -22 -56 -22zM475.002 0.000976562l0.00195312 87.999c-44.667 -66 -112.334 -99 -203.001 -99c-77.333 0 -138.333 25 -183 75c-42 46.667 -63 107.334 -63 182.001
c0 76 21.333 137.667 64 185c44.667 50 106.667 75 186 75c89.333 0 155.666 -32 198.999 -96v94h51v-504h-51zM424.004 400c-36 39.333 -87.002 59.001 -153.002 59.001c-61.333 0 -109.666 -21.333 -144.999 -64c-33.333 -38.667 -50 -88.334 -50 -149.001
c0 -61.333 16.333 -111 49 -149c34.667 -40.667 83.334 -61 146.001 -61c62 0 111.5 20 148.5 60s55.5 90 55.5 150c0 64.667 -17 116 -51 154z" />
    <glyph glyph-name="adieresis" unicode="&#xe4;" horiz-adv-x="552" 
d="M335 522c-17.333 0 -26 8.33301 -26 25v53c0 16 8.66699 24 26 24c16.667 0 25 -8 25 -24v-53c0 -16.667 -8.33301 -25 -25 -25zM219 522c-16.667 0 -25 8.33301 -25 25v53c0 16 8.33301 24 25 24c17.333 0 26 -8 26 -24v-53c0 -16.667 -8.66699 -25 -26 -25zM475 -1
l0.00195312 88.999c-44.667 -66 -112.334 -99 -203.001 -99c-77.333 0 -138.333 25 -183 75c-42 46.667 -63 107.334 -63 182.001c0 76 21.333 137.333 64 184c44.667 50.667 106.667 76 186 76c89.333 0 155.666 -32 198.999 -96v94h51v-505h-51zM424.002 399.999
c-36 39.333 -87.002 59.001 -153.002 59.001c-61.333 0 -109.666 -21.333 -144.999 -64c-33.333 -38.667 -50 -88.334 -50 -149.001c0 -61.333 16.333 -111 49 -149c34.667 -40.667 83.334 -61 146.001 -61c62 0 111.5 20 148.5 60s55.5 90 55.5 150
c0 64.667 -17 116 -51 154z" />
    <glyph glyph-name="aring" unicode="&#xe5;" horiz-adv-x="552" 
d="M270 531c-26 0 -48.167 7.83301 -66.5 23.5s-27.5 35.834 -27.5 60.501c0 25.333 9.16699 45.833 27.5 61.5s40.5 23.5 66.5 23.5c25.333 0 47 -8 65 -24s27 -36.333 27 -61s-9 -44.834 -27 -60.501s-39.667 -23.5 -65 -23.5zM475 0l0.00195312 88
c-44.667 -66 -112.334 -99 -203.001 -99c-77.333 0 -138.333 25 -183 75c-42 47.333 -63 108.333 -63 183c0 76.667 21.333 138.667 64 186c44.667 50 106.667 75 186 75c89.333 0 155.666 -32 198.999 -96v94h51v-506h-51zM270.002 651c-27.333 0 -41 -12 -41 -36
c0 -23.333 13.667 -35 41 -35c26.667 0 40 11.667 40 35c0 24 -13.333 36 -40 36zM424.002 402c-36 39.333 -87.002 59 -153.002 59c-61.333 0 -109.666 -21.333 -144.999 -64c-33.333 -39.333 -50 -89.333 -50 -150c0 -61.333 16.333 -111 49 -149
c34.667 -41.333 83.334 -62 146.001 -62c62 0 111.667 20.667 149 62c36.667 39.333 55 89 55 149c0 65.333 -17 117 -51 155z" />
    <glyph glyph-name="ae" unicode="&#xe6;" horiz-adv-x="984" 
d="M514 226l0.000976562 -9c0 -120.667 66.667 -181 200 -181c96.667 0 160.334 39.667 191.001 119h52c-19.333 -61.333 -52.333 -105 -99 -131c-42 -23.333 -90.667 -35 -146 -35c-89.333 0 -155.333 27.333 -198 82v-72h-51v88
c-44.667 -65.333 -112.334 -98 -203.001 -98c-77.333 0 -138.333 24.667 -183 74c-42 46.667 -63 106.667 -63 180c0 75.333 21.333 136.333 64 183c44.667 49.333 106.667 74 186 74c89.333 0 155.666 -31.667 198.999 -95v93h51v-94c50 64 117.333 96 202 96
c76.667 0 138 -21.5 184 -64.5s69 -100.833 69 -173.5v-35zM716.001 453c-55.333 0 -102.332 -16.333 -140.999 -49c-40.667 -34 -61 -77.667 -61 -131v0h399c-3.33301 56 -22.833 100 -58.5 132s-81.834 48 -138.501 48zM412.002 395
c-36 38.667 -87.001 58.001 -153.001 58.001c-61.333 0 -110 -20.667 -146 -62c-32.667 -38.667 -49 -88 -49 -148c0 -60.667 16.333 -109.667 49 -147c34.667 -40 83.334 -60 146.001 -60c62 0 111.5 19.667 148.5 59s55.5 88.666 55.5 147.999c0 64 -17 114.667 -51 152z
" />
    <glyph glyph-name="ccedilla" unicode="&#xe7;" 
d="M418 20c-40 -25.333 -88 -38 -144 -38c-78.667 0 -141 22.833 -187 68.5s-69 106.167 -69 181.5c0 80 23.5 144.667 70.5 194s112.5 74 196.5 74c50.667 0 94.667 -11.667 132 -35c41.333 -25.333 69 -65 83 -119l-46 -24c-22.667 87.333 -79.667 131 -171 131
c-68 0 -121 -21 -159 -63c-36.667 -39.333 -55 -92 -55 -158c0 -62 18 -111.333 54 -148s86 -55 150 -55c45.333 0 84.333 10.333 117 31c35.333 22.667 58 59.667 68 111l48 -21c-14 -58.667 -43.333 -102 -88 -130zM301 -22c64 0 95.999 -24.667 95.999 -74
c0 -52 -39.333 -78 -118 -78c-25.333 0 -62.666 7 -111.999 21l23 44c37.333 -12 66 -18 86 -18c44 0 66 11.333 66 34c0 13.333 -15.333 21.333 -46 24c-18 2 -35.667 -1.33301 -53 -10v29l10 80h50z" />
    <glyph glyph-name="egrave" unicode="&#xe8;" 
d="M335 510c-11.333 -6.66699 -22.668 -5.33301 -34.001 4l-115 118c-5.33301 6 -8 12 -8 18c0 14 9 21 27 21c8.66699 0 15.334 -2.33301 20.001 -7l114 -118c5.33301 -5.33301 8 -11 8 -17c0 -8 -4 -14.333 -12 -19zM60.998 229.001
c6.66699 -128.667 73.667 -193 201 -193c96.667 0 160.334 40.333 191.001 121h52c-19.333 -63.333 -52.333 -108 -99 -134c-40.667 -22.667 -89.334 -34 -146.001 -34c-82 0 -144.667 24 -188 72c-40.667 44.667 -61 106.667 -61 186c0 77.333 23.167 140 69.5 188
s107.833 72 184.5 72s138 -21.667 184 -65s69 -102 69 -176v-36zM264.998 460.001c-57.333 0 -104.002 -16.333 -140.002 -49s-57 -77.334 -63 -134.001h400c-3.33301 56.667 -22.666 101.334 -57.999 134.001s-81.666 49 -138.999 49z" />
    <glyph glyph-name="eacute" unicode="&#xe9;" 
d="M340 634l-116 -117.998c-6.66699 -5.33301 -13 -8 -19 -8c-17.333 0 -26 7.66699 -26 23c0 6 2.66699 11.667 8 17l113 117c10 11.333 22.333 12.666 37 3.99902c6 -5.33301 9 -11.333 9 -18c0 -4.66699 -2 -10.334 -6 -17.001zM61 229.002
c6.66699 -128.667 73.667 -193 201 -193c96.667 0 160.334 40.333 191.001 121h52c-19.333 -63.333 -52.333 -108 -99 -134c-40.667 -22.667 -89.334 -34 -146.001 -34c-82 0 -144.667 24 -188 72c-40.667 44.667 -61 106.667 -61 186c0 77.333 23.167 140 69.5 188
s107.833 72 184.5 72s138 -21.667 184 -65s69 -102 69 -176v-36zM265 460.002c-57.333 0 -104.002 -16.333 -140.002 -49s-57 -77.334 -63 -134.001h400c-3.33301 56.667 -22.666 101.334 -57.999 134.001s-81.666 49 -138.999 49z" />
    <glyph glyph-name="ecircumflex" unicode="&#xea;" 
d="M340 517l-79 100l-79 -100h-58l119 157h37l121 -157h-61zM61 229c6.66699 -128.667 73.667 -193 201 -193c96.667 0 160.334 40.333 191.001 121h52c-19.333 -63.333 -52.333 -108 -99 -134c-40.667 -22.667 -89.334 -34 -146.001 -34c-82 0 -144.667 24 -188 72
c-40.667 44.667 -61 106.667 -61 186c0 77.333 23.167 140 69.5 188s107.833 72 184.5 72s138 -21.667 184 -65s69 -102 69 -176v-36zM265 460c-57.333 0 -104.002 -16.333 -140.002 -49s-57 -77.334 -63 -134.001h400c-3.33301 56.667 -22.666 101.334 -57.999 134.001
s-81.666 49 -138.999 49z" />
    <glyph glyph-name="edieresis" unicode="&#xeb;" 
d="M321 522c-16.667 0 -25 8.33301 -25 25v53c0 16 8.33301 24 25 24c17.333 0 26 -8 26 -24v-53c0 -16.667 -8.66699 -25 -26 -25zM206 522c-17.333 0 -26 8.33301 -26 25v53c0 16 8.66699 24 26 24c16.667 0 25 -8 25 -24v-53c0 -16.667 -8.33301 -25 -25 -25zM61 229
c6.66699 -128.667 73.667 -193 201 -193c96.667 0 160.334 40 191.001 120h52c-19.333 -62.667 -52.333 -107 -99 -133c-40.667 -22.667 -89.334 -34 -146.001 -34c-82 0 -144.667 23.667 -188 71c-40.667 44.667 -61 106.667 -61 186c0 77.333 23.167 140 69.5 188
s107.833 72 184.5 72s138 -21.833 184 -65.5s69 -102.167 69 -175.5v-35zM265 459c-57.333 0 -104.002 -16.333 -140.002 -49s-57 -77.334 -63 -134.001h400c-3.33301 56.667 -22.666 101.334 -57.999 134.001s-81.666 49 -138.999 49z" />
    <glyph glyph-name="igrave" unicode="&#xec;" horiz-adv-x="136" 
d="M140 510c-11.333 -6.66699 -22.667 -5.33301 -34 4l-114 117c-5.33301 5.33301 -8 11.333 -8 18c0 7.33301 3.66699 13.333 11 18c4.66699 4 9.66699 6 15 6c7.33301 0 14 -3.33301 20 -10l114 -117c5.33301 -5.33301 8 -11 8 -17c0 -8 -4 -14.333 -12 -19z
M42.999 0.000976562v496h51v-496h-51z" />
    <glyph glyph-name="iacute" unicode="&#xed;" horiz-adv-x="136" 
d="M31 511c-6 -6 -12.667 -9 -20 -9c-17.333 0 -26 7.66699 -26 23c0 6 2.33301 11.667 7 17l114 118c6 6 12.667 9 20 9c16.667 0 25 -8 25 -24c0 -6 -2.33301 -11.667 -7 -17zM43 0v496h51v-496h-51z" />
    <glyph glyph-name="icircumflex" unicode="&#xee;" horiz-adv-x="136" 
d="M141 517l-72 99l-74 -99h-58l113 157h37l115 -157h-61zM43 0v496h51v-496h-51z" />
    <glyph glyph-name="idieresis" unicode="&#xef;" horiz-adv-x="136" 
d="M129 522c-16.667 0 -25 8.66699 -25 26v52c0 16 8.33301 24 25 24c17.333 0 26 -8 26 -24v-52c0 -17.333 -8.66699 -26 -26 -26zM14 522c-17.333 0 -26 8.66699 -26 26v52c0 16 8.66699 24 26 24c16.667 0 25 -8 25 -24v-52c0 -17.333 -8.33301 -26 -25 -26zM43 0v494h51
v-494h-51z" />
    <glyph glyph-name="eth" unicode="&#xf0;" horiz-adv-x="564" 
d="M463 0l0.00195312 88c-44.667 -66 -112.334 -99 -203.001 -99c-77.333 0 -138.333 25 -183 75c-42 47.333 -63 108.333 -63 183c0 76 21.333 137.667 64 185c44.667 50 106.667 75 186 75c89.333 0 155.666 -31.667 198.999 -95v149h-332v48h332v69h51v-678h-51z
M412.002 401c-36 39.333 -87.002 59.001 -153.002 59.001c-61.333 0 -109.666 -21 -144.999 -63c-33.333 -39.333 -50 -89.333 -50 -150c0 -61.333 16.333 -111 49 -149c34.667 -41.333 83.334 -62 146.001 -62c62 0 111.667 20.667 149 62c36.667 39.333 55 89 55 149
c0 65.333 -17 116.666 -51 153.999z" />
    <glyph glyph-name="ntilde" unicode="&#xf1;" 
d="M334 527c-14 0 -39.332 9 -75.999 27c-33.333 16.667 -53.333 25 -60 25c-8.66699 0 -16.5 -4 -23.5 -12s-11.167 -25.667 -12.5 -53l-47 30c0 24 9.16699 43.667 27.5 59s37.166 23 56.499 23c13.333 0 38.333 -9.33301 75 -28c33.333 -16 53.333 -24 60 -24
c8.66699 0 16.667 4 24 12s11.666 25 12.999 51l47 -26c-2 -26 -11.167 -46.5 -27.5 -61.5s-35.166 -22.5 -56.499 -22.5zM429.001 0l0.000976562 323c0 44 -13.833 77.667 -41.5 101s-65.167 35 -112.5 35c-56 0 -100.167 -16.833 -132.5 -50.5s-48.5 -77.5 -48.5 -131.5
v-277h-51v494h51v-67c38.667 52.667 98.667 79 180 79c59.333 0 107.666 -14 144.999 -42c40.667 -31.333 61 -75.333 61 -132v-332h-51z" />
    <glyph glyph-name="ograve" unicode="&#xf2;" horiz-adv-x="545" 
d="M345 510c-11.333 -7.33301 -22.667 -6.00098 -34 3.99902l-114 117c-5.33301 6 -8 12 -8 18c0 7.33301 3.66699 13.333 11 18c4.66699 4 9.66699 6 15 6c8 0 15 -3.33301 21 -10l113 -117c4.66699 -5.33301 7 -11 7 -17c0 -7.33301 -3.66699 -13.666 -11 -18.999z
M271.999 -11.001c-79.333 0 -142.168 24 -188.501 72s-69.5 110.333 -69.5 187c0 78 23.667 140.667 71 188s110.333 71 189 71s141.334 -23.667 188.001 -71s70 -110 70 -188c0 -78.667 -23.667 -141.5 -71 -188.5s-110.333 -70.5 -189 -70.5zM272.997 459.999
c-64 0 -114.667 -19.333 -152 -58s-56 -90 -56 -154s18.833 -115.333 56.5 -154s88.167 -58 151.5 -58s113.833 19.333 151.5 58s56.5 90 56.5 154c0 63.333 -18.333 114.5 -55 153.5s-87.667 58.5 -153 58.5z" />
    <glyph glyph-name="oacute" unicode="&#xf3;" horiz-adv-x="545" 
d="M235 510c-5.33301 -5.33301 -11.667 -7.99902 -19 -7.99902c-18 0 -27 8 -27 24c0 5.33301 2.33301 10.666 7 15.999l114 118c6 6 13 9 21 9c17.333 0 26 -8 26 -24c0 -6 -2.66699 -11.667 -8 -17zM271.999 -10.999c-79.333 0 -142.168 24 -188.501 72
s-69.5 110.333 -69.5 187c0 78 23.667 140.667 71 188s110.333 71 189 71s141.334 -23.667 188.001 -71s70 -110 70 -188c0 -78.667 -23.667 -141.5 -71 -188.5s-110.333 -70.5 -189 -70.5zM272.997 460.001c-64 0 -114.667 -19.333 -152 -58s-56 -90 -56 -154
s18.833 -115.333 56.5 -154s88.167 -58 151.5 -58s113.833 19.333 151.5 58s56.5 90 56.5 154c0 63.333 -18.333 114.5 -55 153.5s-87.667 58.5 -153 58.5z" />
    <glyph glyph-name="ocircumflex" unicode="&#xf4;" horiz-adv-x="545" 
d="M351 517l-79 100l-80 -100h-58l119 157h36l123 -157h-61zM272 -11c-79.333 0 -142.168 24 -188.501 72s-69.5 110.333 -69.5 187c0 78 23.667 140.667 71 188s110.333 71 189 71s141.334 -23.667 188.001 -71s70 -110 70 -188c0 -78.667 -23.667 -141.5 -71 -188.5
s-110.333 -70.5 -189 -70.5zM272.998 460c-64 0 -114.667 -19.333 -152 -58s-56 -90 -56 -154s18.833 -115.333 56.5 -154s88.167 -58 151.5 -58s113.833 19.333 151.5 58s56.5 90 56.5 154s-18.333 115.333 -55 154s-87.667 58 -153 58z" />
    <glyph glyph-name="otilde" unicode="&#xf5;" horiz-adv-x="545" 
d="M341 527c-14 0 -39.6689 9 -77.002 27c-33.333 16.667 -52.666 25 -57.999 25c-22.667 0 -35 -21.667 -37 -65l-47 30c0 25.333 8.83301 45.333 26.5 60s37.167 22 58.5 22c12.667 0 37.334 -9.33301 74.001 -28c33.333 -16 53.333 -24 60 -24c20.667 0 34 21 40 63
l44 -26c-3.33301 -26 -12.833 -46.5 -28.5 -61.5s-34.167 -22.5 -55.5 -22.5zM271.998 -11c-79.333 0 -142.667 24.332 -190 72.999c-45.333 46.667 -68 108.334 -68 185.001c0 78 23.667 140.667 71 188s110.333 71 189 71c78 0 140.5 -23.667 187.5 -71
s70.5 -110 70.5 -188s-23.667 -140.5 -71 -187.5s-110.333 -70.5 -189 -70.5zM272.997 458.999c-64 0 -114.667 -19.167 -152 -57.5s-56 -89.833 -56 -154.5c0 -64 18.833 -115.167 56.5 -153.5s88.167 -57.5 151.5 -57.5s113.833 19.167 151.5 57.5s56.5 89.5 56.5 153.5
s-18.333 115.333 -55 154s-87.667 58 -153 58z" />
    <glyph glyph-name="odieresis" unicode="&#xf6;" horiz-adv-x="545" 
d="M331 522c-17.333 0 -26 8.33301 -26 25v53c0 16 8.66699 24 26 24c16.667 0 25 -8 25 -24v-53c0 -16.667 -8.33301 -25 -25 -25zM215 522c-16.667 0 -25 8.33301 -25 25v53c0 16 8.33301 24 25 24c17.333 0 26 -8 26 -24v-53c0 -16.667 -8.66699 -25 -26 -25zM272 -11
c-79.333 0 -142.667 24.332 -190 72.999c-45.333 46.667 -68 108.334 -68 185.001c0 78 23.833 140.667 71.5 188s110.5 71 188.5 71s140.5 -23.667 187.5 -71s70.5 -110 70.5 -188s-23.667 -140.5 -71 -187.5s-110.333 -70.5 -189 -70.5zM272.999 458.999
c-64 0 -114.667 -19.333 -152 -58s-56 -90 -56 -154s18.833 -115.167 56.5 -153.5s88.167 -57.5 151.5 -57.5s113.833 19.167 151.5 57.5s56.5 89.5 56.5 153.5c0 63.333 -18.333 114.5 -55 153.5s-87.667 58.5 -153 58.5z" />
    <glyph glyph-name="divide" unicode="&#xf7;" horiz-adv-x="592" 
d="M296 291c-16.667 0 -25 8 -25 24v60c0 15.333 8.33301 23 25 23c17.333 0 26 -7.66699 26 -23v-60c0 -16 -8.66699 -24 -26 -24zM35 217v46h507v-46h-507zM296 74c-16.667 0 -25 8 -25 24v59c0 16.667 8.33301 25 25 25c17.333 0 26 -8.33301 26 -25v-59
c0 -16 -8.66699 -24 -26 -24z" />
    <glyph glyph-name="oslash" unicode="&#xf8;" horiz-adv-x="545" 
d="M272 -13c-36.667 0 -69.666 4.99902 -98.999 14.999l-25 -49h-54l35 70c-76.667 46.667 -115 120.334 -115 221.001c0 78 23.833 140.5 71.5 187.5s110.5 70.5 188.5 70.5c33.333 0 63.666 -4 90.999 -12l31 59h54l-39 -80c80.667 -45.333 121 -120.333 121 -225
c0 -78 -23.833 -140.333 -71.5 -187s-110.5 -70 -188.5 -70zM429.001 390.999c-12.667 14 -26.667 25.668 -42 35.001l-192 -380c22.667 -8 48.667 -12 78 -12c63.333 0 113.833 19.167 151.5 57.5s56.5 89.166 56.5 152.499c0 58.667 -17.333 107.667 -52 147zM273.001 455
c-64 0 -114.668 -19 -152.001 -57s-56 -89.333 -56 -154c0 -78 28.667 -136.667 86 -176l192 378c-21.333 6 -44.666 9 -69.999 9z" />
    <glyph glyph-name="ugrave" unicode="&#xf9;" 
d="M335 506c-11.333 -7.33301 -22.667 -6.00098 -34 3.99902l-114 118c-5.33301 5.33301 -8 11 -8 17c0 6.66699 3.33301 12.334 10 17.001c4.66699 4.66699 9.66699 7 15 7c8 0 15 -3.33301 21 -10l114 -117c5.33301 -5.33301 8 -11.333 8 -18
c0 -7.33301 -4 -13.333 -12 -18zM428.999 -0.000976562l0.000976562 67.999c-39.333 -52.667 -99 -79 -179 -79c-62.667 0 -112.334 15.333 -149.001 46c-38.667 32.667 -58 79 -58 139v322h51v-321c0 -92.667 52 -139 156 -139c60 0 105.333 18 136 54
c28.667 32.667 43 78.334 43 137.001v269h51v-496h-51z" />
    <glyph glyph-name="uacute" unicode="&#xfa;" 
d="M226 514c-6 -5.33301 -12.667 -8 -20 -8c-17.333 0 -26 7.66699 -26 23c0 6 2.33301 11.667 7 17l113 117c6 6.66699 13 10 21 10c17.333 0 26 -8 26 -24c0 -6.66699 -2.66699 -12.667 -8 -18zM429 0l0.000976562 68c-39.333 -52.667 -99 -79 -179 -79
c-62.667 0 -112.334 15.333 -149.001 46c-38.667 32.667 -58 79 -58 139v322h51v-321c0 -92.667 52 -139 156 -139c60 0 105.333 18 136 54c28.667 32.667 43 78.667 43 138v268h51v-496h-51z" />
    <glyph glyph-name="ucircumflex" unicode="&#xfb;" 
d="M340 517l-79 100l-79 -100h-58l119 157h37l121 -157h-61zM429 0l0.000976562 68c-39.333 -52.667 -99 -79 -179 -79c-62.667 0 -112.334 15.333 -149.001 46c-38.667 32.667 -58 79 -58 139v322h51v-321c0 -92.667 52 -139 156 -139c60 0 105.333 18 136 54
c28.667 33.333 43 79.333 43 138v268h51v-496h-51z" />
    <glyph glyph-name="udieresis" unicode="&#xfc;" 
d="M320 522c-16.667 0 -25 8.33301 -25 25v53c0 16 8.33301 24 25 24c17.333 0 26 -8 26 -24v-53c0 -16.667 -8.66699 -25 -26 -25zM205 522c-17.333 0 -26 8.33301 -26 25v53c0 16 8.66699 24 26 24c16.667 0 25 -8 25 -24v-53c0 -16.667 -8.33301 -25 -25 -25zM429 -1
l0.000976562 69c-39.333 -52.667 -99 -79 -179 -79c-62.667 0 -112.334 15.333 -149.001 46c-38.667 32.667 -58 78.667 -58 138v321h51v-320c0 -92 52 -138 156 -138c60 0 105.333 17.667 136 53c28.667 33.333 43 79.333 43 138v267h51v-495h-51z" />
    <glyph glyph-name="yacute" unicode="&#xfd;" horiz-adv-x="506" 
d="M331 634l-115.999 -119.999c-6.66699 -4.66699 -13 -7 -19 -7c-6.66699 0 -12.834 2.33301 -18.501 7s-8.5 10.334 -8.5 17.001c0 6 3 11.333 9 16l113 118c10.667 11.333 23 12.666 37 3.99902c6 -5.33301 9 -11.333 9 -18c0 -4.66699 -2 -10.334 -6 -17.001z
M241.001 -178.999c-59.333 0 -107.998 11.666 -145.998 34.999c-46.667 28.667 -71.667 76.334 -75 143.001h51c7.33301 -86.667 64.666 -130 171.999 -130c124 0 186 52.333 186 157v37c-39.333 -53.333 -99 -80 -179 -80c-62.667 0 -112.334 15.667 -149.001 47
c-38.667 32.667 -58 79.334 -58 140.001v324h51v-323c0 -93.333 52 -140 156 -140c60 0 105.333 18 136 54c28.667 33.333 43 79.666 43 138.999v270h51v-469c0 -136 -79.667 -204 -239 -204z" />
    <glyph glyph-name="thorn" unicode="&#xfe;" horiz-adv-x="564" 
d="M293 -16c-88.667 0 -155 32 -199 96v-248h-51v846h51v-268c44 64 110 96 198 96c79.333 0 141.333 -24.667 186 -74c42 -46.667 63 -108.667 63 -186c0 -79.333 -21.333 -142.333 -64 -189c-44 -48.667 -105.333 -73 -184 -73zM442 396
c-34.667 42 -82.668 62.999 -144.001 62.999c-62 0 -111.5 -19.5 -148.5 -58.5s-55.5 -89.833 -55.5 -152.5c0 -67.333 16.333 -119.666 49 -156.999c34.667 -40 86 -60 154 -60c62.667 0 111.334 21 146.001 63c32 38.667 48 89 48 151s-16.333 112.333 -49 151z" />
    <glyph glyph-name="ydieresis" unicode="&#xff;" horiz-adv-x="510" 
d="M313 521c-16.667 0 -25 8.66699 -25 26v53c0 16 8.33301 24 25 24c16 0 24.667 -7.66699 26 -23v-54c0 -17.333 -8.66699 -26 -26 -26zM198 521c-17.333 0 -25.999 8.66699 -25.999 26v53c0 16 8.66699 24 26 24c15.333 0 23.666 -7.66699 24.999 -23v-54
c0 -17.333 -8.33301 -26 -25 -26zM241.001 -179c-59.333 0 -107.998 11.667 -145.998 35c-46.667 28.667 -71.667 76.334 -75 143.001h51c7.33301 -87.333 64.666 -131 171.999 -131c124 0 186 52.333 186 157v37c-39.333 -52.667 -99 -79 -179 -79
c-62.667 0 -112.334 15.333 -149.001 46c-38.667 33.333 -58 80 -58 140v324h51v-323c0 -93.333 52 -140 156 -140c60 0 105.333 18 136 54c28.667 33.333 43 79.666 43 138.999v270h51v-469c0 -135.333 -79.667 -203 -239 -203z" />
    <glyph glyph-name="dotlessi" unicode="&#x131;" horiz-adv-x="136" 
d="M43 0v488h51v-488h-51z" />
    <glyph glyph-name="OE" unicode="&#x152;" horiz-adv-x="1010" 
d="M471 0c-27.333 -5.33301 -56.665 -8 -87.998 -8c-110.667 0 -198.334 31 -263.001 93s-97 146 -97 252c0 106.667 32.167 191 96.5 253s152.166 93 263.499 93c22.667 0 44.667 -1.66699 66 -5h532v-47h-394c94 -56 145.333 -141 154 -255h209v-46h-207
c-2 -128 -52 -222.333 -150 -283h394v-47h-516zM505.001 617l-0.00195312 -241h185c-5.33301 57.333 -24.166 107.333 -56.499 150s-75.166 73 -128.499 91zM504.999 330v-272.001c40 14 74.333 35 103 63c54.667 52.667 82.667 122.334 84 209.001h-187zM454.999 629.999
c-22.667 4 -46.667 6 -72 6c-96.667 0 -172.334 -26.667 -227.001 -80s-82 -126.333 -82 -219s27.333 -165.667 82 -219s130.334 -80 227.001 -80c25.333 0 49.333 2.33301 72 7v585z" />
    <glyph glyph-name="oe" unicode="&#x153;" horiz-adv-x="1052" 
d="M558 226c6.66699 -126.667 73.667 -189.999 201 -189.999c96.667 0 160.334 39.667 191.001 119h52c-19.333 -61.333 -52.333 -105 -99 -131c-42 -23.333 -90.667 -35 -146 -35c-116 0 -192 44.667 -228 134c-21.333 -42.667 -52.333 -75.667 -93 -99
s-87.334 -35 -140.001 -35c-79.333 0 -142.166 23.667 -188.499 71s-69.5 108.666 -69.5 183.999c0 78 23.833 140.167 71.5 186.5s110.5 69.5 188.5 69.5c54 0 101.667 -12 143 -36s72 -58.667 92 -104c11.333 24.667 26.666 47 45.999 67c47.333 48.667 108 73 182 73
c76.667 0 138 -21.5 184 -64.5s69 -100.833 69 -173.5v-35zM761 453.001c-55.333 0 -101.499 -16.332 -138.499 -48.999s-58.167 -76.334 -63.5 -131.001h399c-3.33301 56 -22.833 100 -58.5 132s-81.834 48 -138.501 48zM297.001 453.002
c-64 0 -114.667 -18.833 -152 -56.5s-56 -88.5 -56 -152.5c0 -63.333 18.833 -113.833 56.5 -151.5s88.167 -56.5 151.5 -56.5s113.833 18.833 151.5 56.5s56.5 88.167 56.5 151.5c0 62.667 -18.333 113.167 -55 151.5s-87.667 57.5 -153 57.5z" />
    <glyph glyph-name="Scaron" unicode="&#x160;" horiz-adv-x="642" 
d="M336 714h-37l-118 160h58l78 -102l78 102h62zM330 -7c-87.333 0 -157.669 15.668 -211.002 47.001c-65.333 38.667 -98 99 -98 181v25h51v-21c0 -122.667 86.333 -184 259 -184c59.333 0 109 9 149 27c51.333 23.333 77 59.666 77 108.999c0 34 -9.33301 60 -28 78
c-15.333 15.333 -41.666 28.333 -78.999 39c-17.333 5.33301 -64.666 16.333 -141.999 33l-89 20c-35.333 9.33301 -63.666 19.666 -84.999 30.999c-60.667 31.333 -91 77.333 -91 138c0 116.667 89.333 175 268 175c186.667 0 281 -73 283 -219h-50
c-4 70 -28 117.333 -72 142c-36 20 -89.667 30 -161 30c-144.667 0 -217 -42.667 -217 -128c0 -42 19.667 -73.333 59 -94c27.333 -14.667 73.666 -27.667 138.999 -39c121.333 -22 202.333 -45.333 243 -70c48.667 -29.333 73 -75.666 73 -138.999
s-32.333 -111.333 -97 -144c-50 -24.667 -110.333 -37 -181 -37z" />
    <glyph glyph-name="scaron" unicode="&#x161;" horiz-adv-x="486" 
d="M258 526h-37l-118 158h58l78 -101l78 101h63zM249 -13c-148.667 0 -222.997 67.6641 -222.997 202.997h53c0 -53.333 13.667 -92.333 41 -117s70.666 -37 129.999 -37c40 0 73 6.66699 99 20c32 16.667 48 41.667 48 75c0 40.667 -33.333 68.667 -100 84
c-4.66699 1.33301 -38 7 -100 17c-100 15.333 -150 59.333 -150 132c0 46.667 20 83.334 60 110.001c34 23.333 75.667 35 125 35c143.333 0 215 -60.333 215 -181h-54c0 46 -12.333 79.333 -37 100s-64.334 31 -119.001 31c-36.667 0 -67.667 -7.33301 -93 -22
c-29.333 -17.333 -44 -41.666 -44 -72.999c0 -40.667 32.667 -67 98 -79c27.333 -5.33301 62.666 -11.666 105.999 -18.999c97.333 -17.333 146 -62.333 146 -135c0 -51.333 -22 -89.333 -66 -114c-34.667 -20 -79.667 -30 -135 -30z" />
    <glyph glyph-name="Ydieresis" unicode="&#x178;" horiz-adv-x="663" 
d="M394 711c-16.667 0 -25 8.66699 -25 26v53c0 16 8.33301 24 25 24c16 0 24.667 -8 26 -24v-53c0 -17.333 -8.66699 -26 -26 -26zM279 711c-17.333 0 -25.999 8.66699 -25.999 26v53c0 16 8.66699 24 26 24c15.333 0 23.666 -8 24.999 -24v-53
c0 -17.333 -8.33301 -26 -25 -26zM358.001 330v-330h-51v330l-322 353h67l280 -306l281 306h65z" />
    <glyph glyph-name="florin" unicode="&#x192;" horiz-adv-x="584" 
d="M600 619c-133.333 0 -212.332 -49 -236.999 -147l-8 -29h110l-12 -48h-110l-91 -376c-30.667 -124.667 -130.334 -187 -299.001 -187l11 47c134 0 212 44.333 234 133l93 383h-74l15 48h71l9 36c32 124.667 131.667 187 299 187z" />
    <glyph glyph-name="circumflex" unicode="&#x2c6;" horiz-adv-x="259" 
d="M207 540l-79 85l-79 -85h-58l119 134h35l124 -134h-62z" />
    <glyph glyph-name="caron" unicode="&#x2c7;" horiz-adv-x="136" 
d="M80 549h-36l-118 135h58l79 -86l79 86h62z" />
    <glyph glyph-name="ring" unicode="&#x2da;" horiz-adv-x="136" 
d="M64 569c-25.333 0 -47.332 6.83301 -65.999 20.5s-28 31.167 -28 52.5s9.33301 38.833 28 52.5s40.667 20.5 66 20.5s47.166 -6.83301 65.499 -20.5s27.5 -31.167 27.5 -52.5c0 -22.667 -10.333 -41 -31 -55c-17.333 -12 -38 -18 -62 -18zM64.001 672
c-27.333 0 -41 -10 -41 -30s13.667 -30 41 -30s41 10 41 30s-13.667 30 -41 30z" />
    <glyph glyph-name="tilde" unicode="&#x2dc;" horiz-adv-x="366" 
d="M250 551c-12.667 0 -37.6689 6.99902 -75.002 20.999c-32.667 12 -52.667 18 -60 18c-8.66699 0 -16.5 -3 -23.5 -9s-11.167 -19 -12.5 -39l-47 22c0 18.667 9.33301 33.834 28 45.501s37.334 17.5 56.001 17.5c12.667 0 37.667 -7 75 -21
c32.667 -12 52.334 -18 59.001 -18c10 0 18.5 3 25.5 9s11.167 18.667 12.5 38l47 -20c-3.33301 -20 -13 -35.667 -29 -47s-34.667 -17 -56 -17z" />
    <glyph glyph-name="mu" unicode="&#x3bc;" horiz-adv-x="584" 
 />
    <glyph glyph-name="endash" unicode="&#x2013;" horiz-adv-x="495" 
d="M-15 254v20h523v-20h-523z" />
    <glyph glyph-name="emdash" unicode="&#x2014;" horiz-adv-x="894" 
d="M-15 254v20h922v-20h-922z" />
    <glyph glyph-name="quoteleft" unicode="&#x2018;" horiz-adv-x="175" 
d="M93 517c-3.33301 -10.667 -11.333 -16 -24 -16c-17.333 0 -26 7 -26 21c0 2 0.666992 4.33301 2 7l42 132c3.33301 10.667 11.333 16 24 16c18 0 27 -7 27 -21c0 -2 -0.666992 -4.33301 -2 -7z" />
    <glyph glyph-name="quoteright" unicode="&#x2019;" horiz-adv-x="175" 
d="M94 517c-3.33301 -10.667 -11.667 -16.001 -25 -16.001c-17.333 0 -26 6.66699 -26 20c0 2.66699 0.666992 5.33398 2 8.00098l43 132c4 14 14 19.333 30 16c13.333 -3.33301 20 -10.333 20 -21c0 -2 -0.666992 -4.33301 -2 -7z" />
    <glyph glyph-name="quotesinglbase" unicode="&#x201a;" horiz-adv-x="292" 
d="M132 -74c-3.33301 -11.333 -11.667 -17 -25 -17c-17.333 0 -26 7 -26 21c0 2 0.666992 4.66699 2 8l43 132c4 14 14 19.333 30 16c13.333 -3.33301 20 -10.333 20 -21c0 -2 -0.666992 -4.33301 -2 -7z" />
    <glyph glyph-name="quotedblleft" unicode="&#x201c;" horiz-adv-x="267" 
d="M198 517c-3.33301 -10.667 -11.333 -16 -24 -16c-17.333 0 -26 7 -26 21c0 2 0.666992 4.33301 2 7l42 132c3.33301 10.667 11.333 16 24 16c18 0 27 -7 27 -21c0 -2 -0.666992 -4.33301 -2 -7zM93 517c-3.33301 -10.667 -11.333 -16 -24 -16c-17.333 0 -26 7 -26 21
c0 2 0.666992 4.33301 2 7l42 132c3.33301 10.667 11.333 16 24 16c18 0 27 -7 27 -21c0 -2 -0.666992 -4.33301 -2 -7z" />
    <glyph glyph-name="quotedblright" unicode="&#x201d;" horiz-adv-x="276" 
d="M199 517c-3.33301 -10.667 -11.667 -16.001 -25 -16.001c-17.333 0 -26 6.66699 -26 20c0 2.66699 0.666992 5.33398 2 8.00098l43 132c4 14 14 19.333 30 16c13.333 -3.33301 20 -10.333 20 -21c0 -2 -0.666992 -4.33301 -2 -7zM93.999 516.999
c-3.33301 -10.667 -11.667 -16.001 -25 -16.001c-17.333 0 -26 6.66699 -26 20c0 2.66699 0.666992 5.33398 2 8.00098l43 132c4 14 14 19.333 30 16c13.333 -3.33301 20 -10.333 20 -21c0 -2 -0.666992 -4.33301 -2 -7z" />
    <glyph glyph-name="quotedblbase" unicode="&#x201e;" horiz-adv-x="351" 
d="M237 -74c-3.33301 -11.333 -11.667 -17 -25 -17c-17.333 0 -26 7 -26 21c0 2 0.666992 4.66699 2 8l43 132c4 14 14 19.333 30 16c13.333 -3.33301 20 -10.333 20 -21c0 -2 -0.666992 -4.33301 -2 -7zM131.999 -74c-3.33301 -11.333 -11.667 -17 -25 -17
c-17.333 0 -26 7 -26 21c0 2 0.666992 4.66699 2 8l43 132c4 14 14 19.333 30 16c13.333 -3.33301 20 -10.333 20 -21c0 -2 -0.666992 -4.33301 -2 -7z" />
    <glyph glyph-name="dagger" unicode="&#x2020;" horiz-adv-x="345" 
d="M190 449v-506h-51v506h-117v49h117v123h51v-123h118v-49h-118z" />
    <glyph glyph-name="daggerdbl" unicode="&#x2021;" horiz-adv-x="337" 
d="M195 41v-98h-51v98h-118v48h118v360h-118v49h118v123h51v-123h117v-49h-117v-360h117v-48h-117z" />
    <glyph glyph-name="bullet" unicode="&#x2022;" horiz-adv-x="292" 
d="M121 250c-25.333 0 -45.166 2.50195 -59.499 7.50195s-21.5 9.83301 -21.5 14.5v106c0 4.66699 7.16699 9.5 21.5 14.5s34.166 7.5 59.499 7.5s45.666 -2.66699 60.999 -8c13.333 -4.66699 20 -9.33398 20 -14.001v-106c0 -4.66699 -6.66699 -9.33398 -20 -14.001
c-15.333 -5.33301 -35.666 -8 -60.999 -8z" />
    <glyph glyph-name="ellipsis" unicode="&#x2026;" horiz-adv-x="638" 
d="M524 -2c-17.333 0 -26 6.66699 -26 20v47c0 13.333 8.66699 20 26 20c16.667 0 25 -6.66699 25 -20v-47c0 -13.333 -8.33301 -20 -25 -20zM335 -2c-17.333 0 -26 6.66699 -26 20v47c0 13.333 8.66699 20 26 20c16.667 0 25 -6.66699 25 -20v-47
c0 -13.333 -8.33301 -20 -25 -20zM146 -2c-17.333 0 -26 6.66699 -26 20v47c0 13.333 8.66699 20 26 20c16.667 0 25 -6.66699 25 -20v-47c0 -13.333 -8.33301 -20 -25 -20z" />
    <glyph glyph-name="perthousand" unicode="&#x2030;" horiz-adv-x="1012" 
d="M846 -19c-98.667 0 -148 60 -148 180c0 123.333 49.667 185 149 185s149 -61.667 149 -185c0 -120 -50 -180 -150 -180zM148 -1h-62l498 679h61zM542 -19c-99.333 0 -149 60 -149 180c0 123.333 50 185 150 185c98.667 0 148 -61.667 148 -185
c0 -120 -49.667 -180 -149 -180zM172 294c-98.667 0 -148 60 -148 180c0 122.667 49.667 184 149 184s149 -61.333 149 -184c0 -120 -50 -180 -150 -180zM846 299c-64 0 -96 -46 -96 -138c0 -88.667 32.333 -133 97 -133s97 44.333 97 133c0 92 -32.667 138 -98 138z
M542 299c-64.667 0 -97 -46 -97 -138c0 -88.667 32.667 -133 98 -133c64 0 96 44.333 96 133c0 92 -32.333 138 -97 138zM172 611c-64 0 -96 -45.667 -96 -137c0 -88.667 32.333 -133 97 -133s97 44.333 97 133c0 91.333 -32.667 137 -98 137z" />
    <glyph glyph-name="guilsinglleft" unicode="&#x2039;" horiz-adv-x="294" 
d="M56 258v31l179 116v-53l-118 -78l118 -79v-50z" />
    <glyph glyph-name="guilsinglright" unicode="&#x203a;" horiz-adv-x="294" 
d="M56 145v50l118 79l-118 78v53l179 -116v-31z" />
    <glyph glyph-name="trademark" unicode="&#x2122;" horiz-adv-x="789" 
d="M696 347v241l-133 -241h-41l-139 246c0.666992 -65.333 1 -147.333 1 -246h-55v290h-88v-290h-55v290h-148v47h353l151 -265l149 265h61v-337h-56z" />
    <glyph glyph-name="glyph1" horiz-adv-x="0" 
 />
    <glyph glyph-name="nonmarkingreturn" horiz-adv-x="354" 
 />
    <glyph glyph-name="glyph221" horiz-adv-x="354" 
 />
    <glyph glyph-name="glyph222" horiz-adv-x="354" 
 />
    <glyph glyph-name="glyph222" horiz-adv-x="354" 
 />
    <glyph glyph-name="glyph223" horiz-adv-x="354" 
 />
    <glyph glyph-name="ch333" horiz-adv-x="292" 
 />
    <glyph glyph-name="ch334" horiz-adv-x="292" 
 />
    <glyph glyph-name="glyph221" horiz-adv-x="292" 
 />
    <glyph glyph-name="ch336" horiz-adv-x="292" 
 />
    <glyph glyph-name="ch337" horiz-adv-x="292" 
 />
    <glyph glyph-name="ch338" horiz-adv-x="292" 
 />
    <glyph glyph-name="glyph224" horiz-adv-x="292" 
 />
    <glyph glyph-name="ch340" horiz-adv-x="292" 
 />
    <glyph glyph-name="ch335" horiz-adv-x="292" 
 />
    <glyph glyph-name="glyph225" horiz-adv-x="292" 
 />
    <glyph glyph-name="glyph226" horiz-adv-x="292" 
 />
    <glyph glyph-name="ch344" horiz-adv-x="292" 
 />
    <glyph glyph-name="ch339" horiz-adv-x="292" 
 />
    <glyph glyph-name="ch342" horiz-adv-x="292" 
 />
    <glyph glyph-name="ch263" horiz-adv-x="292" 
 />
    <glyph glyph-name="glyph103" horiz-adv-x="420" 
d="M534 435c0 36 -11 62.3301 -33 78.9971s-49.333 25 -82 25c-32 0 -59.333 -8.66699 -82 -26s-34 -39.666 -34 -66.999c0 -39.333 -16.5 -71.666 -49.5 -96.999s-71.167 -38 -114.5 -38s-81 12 -113 36c-35.333 26.667 -53 64.334 -53 113.001h50
c0 -36 11.333 -62.5 34 -79.5s50 -25.5 82 -25.5s59.167 8.33301 81.5 25s33.5 38.667 33.5 66c0 40 17 73.333 51 100c32 24.667 70 37 114 37s82.333 -12.667 115 -38s49 -63 49 -113z" />
    <glyph glyph-name="glyph214" horiz-adv-x="350" 
d="M251 382v-126h-55v126h-274l171 276h61l-142 -228h184v229l55 -2v-227h93v-48h-93z" />
    <glyph glyph-name=".null" horiz-adv-x="0" 
 />
  </font>
</defs>
</svg>
