<?xml version="1.0" standalone="no"?>
<!DOCTYPE svg PUBLIC "-//W3C//DTD SVG 1.1//EN" "http://www.w3.org/Graphics/SVG/1.1/DTD/svg11.dtd" >
<svg xmlns="http://www.w3.org/2000/svg">
<metadata></metadata>
<defs>
<font id="caviar_dreamsregular" horiz-adv-x="430" >
<font-face units-per-em="2048" ascent="1638" descent="-410" />
<missing-glyph horiz-adv-x="708" />
<glyph horiz-adv-x="2048" />
<glyph horiz-adv-x="2048" />
<glyph unicode="&#xd;" horiz-adv-x="708" />
<glyph unicode=" "  horiz-adv-x="708" />
<glyph unicode="&#x09;" horiz-adv-x="708" />
<glyph unicode="&#xa0;" horiz-adv-x="708" />
<glyph unicode="!" d="M125 76q0 37 26.5 63t63.5 26t63.5 -26t26.5 -63q0 -38 -26.5 -64t-63.5 -26t-63.5 26t-26.5 64zM168 276v1324h90v-1324h-90z" />
<glyph unicode="&#x22;" horiz-adv-x="575" d="M125 997v600h90v-600h-90zM360 997v600h90v-600h-90z" />
<glyph unicode="#" horiz-adv-x="1653" d="M125 575l23 90h445l57 230h-445l23 90h445l111 445h90l-111 -445h230l111 445h90l-111 -445h445l-23 -90h-445l-57 -230h445l-23 -90h-445l-111 -445h-90l111 445h-230l-111 -445h-90l111 445h-445zM683 665h230l57 230h-230z" />
<glyph unicode="$" horiz-adv-x="1011" d="M100 445l82 30q12 -115 94 -196q81 -81 190 -92v704q-104 45 -170 112q-86 85 -86 207q0 119 86 205q72 73 170 84v163h90v-165q88 -15 155 -81q47 -46 67 -108l-78 -31q-17 46 -51 80q-41 40 -93 53v-464q137 -53 236 -151q119 -119 119 -287q0 -170 -119 -289 q-101 -101 -236 -117v-140h-90v139q-144 11 -251 118q-95 96 -115 226zM297 1210q0 -86 60 -146q42 -42 109 -79v428q-62 -10 -108 -57q-61 -60 -61 -146zM556 189q100 15 176 91q94 94 94 228q0 133 -94 227q-74 74 -176 121v-667z" />
<glyph unicode="%" horiz-adv-x="1221" d="M80 984q0 96 67.5 163.5t163.5 67.5t163.5 -67.5t67.5 -163.5t-67.5 -163.5t-163.5 -67.5t-163.5 67.5t-67.5 163.5zM115 54l918 1311l74 -51l-918 -1311zM167 984q0 -60 42 -102t102 -42q59 0 101.5 42t42.5 102t-42.5 102t-101.5 42q-60 0 -102 -42t-42 -102zM680 384 q0 96 67.5 163.5t163.5 67.5t163.5 -67.5t67.5 -163.5t-67.5 -163.5t-163.5 -67.5t-163.5 67.5t-67.5 163.5zM767 384q0 -60 42 -102t102 -42q59 0 101.5 42t42.5 102t-42.5 102t-101.5 42q-60 0 -102 -42t-42 -102z" />
<glyph unicode="&#x26;" horiz-adv-x="1304" d="M75 456q0 196 137 342q94 101 244 151q-72 31 -147.5 111.5t-75.5 221.5q0 138 99 237.5t240 99.5q140 0 240 -99q55 -53 76 -119l-81 -32q-18 49 -59 90q-73 72 -176 72t-176 -72.5t-73 -176.5q0 -103 70.5 -178t130.5 -98t150 -24v-84l-72 -2q-219 -41 -329 -161 t-110 -279q0 -160 113 -273t273 -113q159 0 272 113q66 66 94 148q-13 5 -25 12q-48 27 -120 102q-48 44 -68 55q-22 12 -44 12q-13 0 -25 -3q-36 -10 -54 -42q-13 -22 -13 -44q0 -12 4 -25q10 -36 39 -52q19 -10 52 -10q18 0 41 3l-9 -82q-25 -7 -50 -7q-40 0 -78 21 q-60 33 -79 104q-7 25 -7 48q0 44 24 86q37 64 107 83q25 7 49 7q44 0 85 -24q40 -22 104 -89q58 -53 85 -68q30 -17 62 -17q18 0 36 5q52 14 79 61q17 31 17 63q0 17 -5 35q-14 51 -60 78q-28 16 -63 16q-25 0 -54 -8l-1 89q28 8 56 8q53 0 104 -29q78 -44 102 -131 q8 -30 8 -58q0 -55 -29 -105q-44 -78 -132 -102q-26 -7 -50 -8q-33 -108 -119 -194q-139 -140 -335 -140t-335 139t-139 336z" />
<glyph unicode="'" horiz-adv-x="340" d="M125 997v600h90v-600h-90z" />
<glyph unicode="(" horiz-adv-x="703" d="M100 800q0 439 204 694q131 165 299 223v-89q-135 -62 -244 -199q-181 -228 -181 -629q0 -402 181 -630q109 -137 244 -202v-85q-168 58 -299 223q-204 254 -204 694z" />
<glyph unicode=")" horiz-adv-x="703" d="M100 -32q135 65 244 202q181 228 181 630q0 401 -181 629q-109 137 -244 199v89q168 -58 299 -223q204 -255 204 -694q0 -440 -204 -694q-131 -165 -299 -223v85z" />
<glyph unicode="*" horiz-adv-x="800" d="M128 1162l193 135l-193 135l52 74l175 -123v214h90v-213l174 122l52 -74l-193 -135l193 -135l-52 -74l-174 122v-213h-90v214l-175 -123z" />
<glyph unicode="+" horiz-adv-x="1050" d="M125 547v90h355v355h90v-355h355v-90h-355v-355h-90v355h-355z" />
<glyph unicode="," horiz-adv-x="379" d="M10 -219l103 385h166l-185 -385h-84z" />
<glyph unicode="-" horiz-adv-x="840" d="M125 547v90h590v-90h-590z" />
<glyph unicode="." horiz-adv-x="380" d="M100 76q0 37 26.5 63t63.5 26t63.5 -26t26.5 -63q0 -38 -26.5 -64t-63.5 -26t-63.5 26t-26.5 64z" />
<glyph unicode="/" horiz-adv-x="727" d="M-50 0l724 1600h103l-725 -1600h-102z" />
<glyph unicode="0" horiz-adv-x="1250" d="M76 521v530q0 227 161 388t388 161q228 0 388.5 -161t160.5 -388v-530q0 -227 -160.5 -388t-388.5 -161q-227 0 -388 161t-161 388zM171 521q0 -188 133 -320.5t321 -132.5t321 132.5t133 320.5v530q0 188 -133 320.5t-321 132.5t-321 -132.5t-133 -320.5v-530z" />
<glyph unicode="1" horiz-adv-x="1250" d="M532 1442l123 158h62v-1600h-90v1442h-95z" />
<glyph unicode="2" horiz-adv-x="1250" d="M151 1219q23 150 134 262q140 141 337 141q198 0 337.5 -140t139.5 -338q0 -197 -137 -344q-93 -101 -220 -196t-286 -214t-198 -300h841v-90h-943q46 310 211.5 433.5t292.5 219t236 214.5t109 277q0 159 -112 271t-271 112q-157 0 -270 -112q-96 -96 -110 -229z" />
<glyph unicode="3" horiz-adv-x="1250" d="M151 381l91 33q14 -133 110 -229q113 -112 270 -112q159 0 271 112t112 271q0 158 -109 277t-327 160l-75 2v90q93 1 152.5 24t129 97t69.5 176q0 103 -72 174.5t-174 71.5q-101 0 -174 -71q-40 -41 -59 -92l-86 34q22 70 77 123q101 100 242 100q143 0 242.5 -100.5 t99.5 -239.5q0 -142 -76 -223.5t-142 -108.5q144 -48 239 -150q137 -147 137 -344q0 -198 -139.5 -338t-337.5 -140q-197 0 -337 141q-111 112 -134 262z" />
<glyph unicode="4" horiz-adv-x="1250" d="M173 468l660 1132h90v-1042h153v-90h-153v-468h-90v468h-660zM328 558h505v848z" />
<glyph unicode="5" horiz-adv-x="1250" d="M117 210l64 71q85 -126 246 -175q72 -22 142 -22q112 0 218 56q173 92 231 280q22 72 22 142q0 112 -57 219q-92 172 -280 238q-81 28 -178 28q-127 0 -282 -49l-72 63l184 507v32h500v-90h-425l-148 -407q50 16 112 30q64 11 124 11q110 0 211 -35q226 -77 336 -284 q69 -129 69 -264q0 -84 -26 -169q-69 -225 -276 -336q-126 -67 -260 -67q-85 0 -173 27q-180 55 -282 194z" />
<glyph unicode="6" horiz-adv-x="1250" d="M73 504q10 353 170 577t396 488q14 16 27 31h124q-20 -25 -42 -50q-263 -294 -417 -513q-33 -46 -59 -97q151 131 356 131q228 0 388.5 -161t160.5 -389q0 -227 -160.5 -388t-388.5 -161q-227 0 -388 161q-155 155 -161 371h-6zM174 521q0 -188 133 -320.5t321 -132.5 t321 132.5t133 320.5t-133 321t-321 133t-321 -133t-133 -321z" />
<glyph unicode="7" horiz-adv-x="1250" d="M153 0q10 353 170 577t396 488t275 445h-841v90h943q-6 -260 -268.5 -554t-416.5 -513t-164 -533h-94z" />
<glyph unicode="8" horiz-adv-x="1250" d="M107 456q0 197 137 344q95 102 239 150q-66 27 -142 108.5t-76 223.5q0 139 99.5 239.5t242.5 100.5h36q143 0 242.5 -100.5t99.5 -239.5q0 -142 -76 -223.5t-142 -108.5q144 -48 239 -150q137 -147 137 -344q0 -198 -139.5 -338t-337.5 -140q-20 0 -41 2q-20 -2 -41 -2 q-198 0 -337.5 140t-139.5 338zM201 456q0 -159 112 -271t271 -112q20 0 40 2h2q20 -2 40 -2q159 0 271 112t112 271q0 158 -109 277q-106 116 -315 158q-209 -42 -315 -158q-109 -119 -109 -277zM361 1282q0 -102 69.5 -176t128.5 -97q30 -11 66 -17q36 6 66 17 q59 23 128.5 97t69.5 176q0 103 -72 174.5t-174 71.5q-9 0 -17 -1h-2q-8 1 -17 1q-102 0 -174 -71.5t-72 -174.5z" />
<glyph unicode="9" horiz-adv-x="1250" d="M73 1051q0 227 160.5 388t388.5 161q227 0 388 -161q155 -155 161 -371h6q-10 -353 -170 -577t-396 -488q-14 -16 -27 -31h-124q20 25 42 50q263 294 417 513q33 46 59 97q-151 -131 -356 -131q-228 0 -388.5 161t-160.5 389zM168 1051q0 -188 133 -321t321 -133t321 133 t133 321t-133 320.5t-321 132.5t-321 -132.5t-133 -320.5z" />
<glyph unicode=":" d="M125 76q0 37 26.5 63t63.5 26t63.5 -26t26.5 -63q0 -38 -26.5 -64t-63.5 -26t-63.5 26t-26.5 64zM125 693q0 37 26.5 63t63.5 26t63.5 -26t26.5 -63q0 -38 -26.5 -64t-63.5 -26t-63.5 26t-26.5 64z" />
<glyph unicode=";" horiz-adv-x="477" d="M83 -219l103 385h166l-185 -385h-84zM125 693q0 37 26.5 63t63.5 26t63.5 -26t26.5 -63q0 -38 -26.5 -64t-63.5 -26t-63.5 26t-26.5 64z" />
<glyph unicode="&#x3c;" horiz-adv-x="1349" d="M100 563l1149 418v-96l-886 -322l886 -322v-96z" />
<glyph unicode="=" horiz-adv-x="1050" d="M125 387v90h800v-90h-800zM125 707v90h800v-90h-800z" />
<glyph unicode="&#x3e;" horiz-adv-x="1349" d="M100 145v96l886 322l-886 322v96l1149 -418z" />
<glyph unicode="?" horiz-adv-x="956" d="M127 1210v8q0 65 32 129q62 127 194 173q58 20 114 20q74 0 146 -34q126 -61 172 -192q20 -57 20 -113q0 -74 -35 -146q-61 -127 -203 -237q-117 -103 -177 -229q-40 -82 -40 -166q0 -64 23 -129l-83 -29q-28 80 -28 158q0 104 49 204q80 167 241 289q95 92 136 178 q26 53 26 108q0 41 -14 82q-35 98 -128 143q-53 25 -107 25q-41 0 -83 -15q-97 -34 -142 -126q-25 -52 -25 -105zM236 76q0 37 26.5 63t63.5 26t63.5 -26t26.5 -63q0 -38 -26.5 -64t-63.5 -26t-63.5 26t-26.5 64z" />
<glyph unicode="@" horiz-adv-x="1626" d="M125 547q0 284 202.5 486.5t486.5 202.5q285 0 486 -202.5t201 -486.5q0 -127 -92.5 -272t-204.5 -145q-13 0 -25 2q-86 18 -93 100v81q-121 -127 -272 -127q-150 0 -257 107t-107 255q0 151 107 258t257 107q151 0 272 -127v114h81v-648q18 -43 55 -43q44 0 122 110.5 t78 227.5q0 251 -178.5 429.5t-429.5 178.5t-428.5 -178.5t-177.5 -429.5t177.5 -428.5t428.5 -177.5q172 0 251 49l57 -60q-120 -70 -308 -70q-284 0 -486.5 202t-202.5 485zM537 548q0 -115 81.5 -197t197.5 -82t198 82q57 57 74 132v132q-17 75 -74 132q-82 83 -198 83 t-197.5 -82.5t-81.5 -199.5z" />
<glyph unicode="A" horiz-adv-x="1291" d="M50 0l596 1637l595 -1637h-95l-223 613h-554l-223 -613h-96zM402 703h488l-244 671z" />
<glyph unicode="B" horiz-adv-x="1066" d="M150 0v1600h284q123 0 210.5 -87t87.5 -210q0 -124 -127 -231q112 -23 211 -132q160 -161 160 -389q0 -227 -160 -393q-149 -154 -356 -157v-1h-310zM240 90h220v-1q167 11 288 137q133 137 133 325t-133 321t-321 133h-187v-915zM240 1101h217q75 7 128 56q61 56 61 146 t-61 148.5t-151 58.5h-194v-409z" />
<glyph unicode="C" horiz-adv-x="1595" d="M125 800q0 339 239.5 579t579.5 240q317 0 551 -213l-68 -62q-206 183 -483 183q-301 0 -514 -213t-213 -514q0 -302 213 -515t514 -213q277 0 483 183l68 -61q-234 -213 -551 -213q-340 0 -579.5 239.5t-239.5 579.5z" />
<glyph unicode="D" horiz-adv-x="1199" d="M150 0v1600h90v-2h7q395 0 612 -218q240 -241 240 -580q0 -340 -240 -580q-217 -218 -612 -218h-7v-2h-90zM240 93h7q356 0 547 192q213 213 213 515q0 301 -213 515q-191 191 -547 191h-7v-1413z" />
<glyph unicode="E" horiz-adv-x="1075" d="M150 0v1600h800v-90h-710v-665h710v-90h-710v-665h710v-90h-800z" />
<glyph unicode="F" horiz-adv-x="975" d="M150 0v1600h700v-90h-610v-665h610v-90h-610v-755h-90z" />
<glyph unicode="G" horiz-adv-x="1620" d="M125 800q0 339 239.5 579t579.5 240q317 0 551 -213l-68 -62q-206 183 -483 183q-301 0 -514 -213t-213 -514q0 -302 213 -515t514 -213q258 0 455 159v488h90v-520q-228 -218 -545 -218q-340 0 -579.5 239.5t-239.5 579.5z" />
<glyph unicode="H" horiz-adv-x="1150" d="M150 0v1600h90v-793h670v793h90v-1600h-90v717h-670v-717h-90z" />
<glyph unicode="I" d="M170 0v1600h90v-1600h-90z" />
<glyph unicode="J" horiz-adv-x="857" d="M125 259l59 23q20 -108 85 -162q54 -46 122 -46q12 0 25 2q83 0 143 59q53 53 53 179v1286h90v-1296q0 -152 -80 -232q-85 -86 -206 -86t-206 85.5t-85 187.5z" />
<glyph unicode="K" horiz-adv-x="1097" d="M150 0v1600h90v-681l511 681h116l-480 -644l620 -956h-111l-568 884l-88 -109v-775h-90z" />
<glyph unicode="L" horiz-adv-x="950" d="M150 0v1600h90v-1510h620v-90h-710z" />
<glyph unicode="M" horiz-adv-x="1707" d="M150 1600h103l601 -1040l600 1040h103l-4 -7v-1593h-90v1437l-609 -1054l-610 1054v-1437h-90v1593z" />
<glyph unicode="N" horiz-adv-x="1311" d="M150 0v1600h99l822 -1423v1423h90v-1600h-90l-831 1437v-1437h-90z" />
<glyph unicode="O" horiz-adv-x="1892" d="M125 802q0 340 240.5 580.5t580.5 240.5t580.5 -240.5t240.5 -580.5t-240.5 -580.5t-580.5 -240.5t-580.5 240.5t-240.5 580.5zM217 802q0 -302 213.5 -516t515.5 -214t515.5 214t213.5 516t-213.5 515.5t-515.5 213.5t-515.5 -213.5t-213.5 -515.5z" />
<glyph unicode="P" horiz-adv-x="1089" d="M150 0v1600h420q183 -25 311 -153q153 -153 153 -369q0 -217 -153 -370t-369 -153h-272v-555h-90zM240 646h272q178 0 304.5 126.5t126.5 305.5t-126.5 305t-304.5 126h-272v-863z" />
<glyph unicode="Q" horiz-adv-x="1892" d="M125 802q0 340 240.5 580.5t580.5 240.5t580.5 -240.5t240.5 -580.5t-240 -580q-174 -174 -399 -222q5 -2 10 -3q73 -20 197 -98q84 -45 118 -55q21 -6 41 -6q36 0 70 19q53 30 69 88q5 16 6 32h91q-2 -27 -10 -55q-27 -94 -112 -142q-54 -31 -112 -31q-33 0 -67 10 q-60 16 -170 86q-102 54 -145 66q-29 8 -57 8q-50 0 -96 -26q-74 -42 -96 -123q-4 -12 -5 -24h-91q2 24 9 49q33 116 139 176l20 10q-334 3 -571 241q-241 240 -241 580zM217 802q0 -302 213.5 -516t515.5 -214t515.5 214t213.5 516t-213.5 515.5t-515.5 213.5 t-515.5 -213.5t-213.5 -515.5z" />
<glyph unicode="R" horiz-adv-x="1089" d="M150 0v1600h420q183 -25 311 -153q153 -153 153 -369q0 -217 -153 -370q-106 -106 -243 -139l369 -569h-111l-357 556q-13 -1 -27 -1h-272v-555h-90zM240 646h272q178 0 304.5 126.5t126.5 305.5t-126.5 305t-304.5 126h-272v-863z" />
<glyph unicode="S" horiz-adv-x="1042" d="M50 379l85 31q14 -130 111 -227q113 -113 272 -113q160 0 273 113t113 273q0 159 -113 272q-99 99 -243 158q-171 57 -270 156t-99 240q0 138 99 237.5t240 99.5q140 0 240 -99q55 -53 76 -119l-81 -32q-18 49 -59 90q-73 72 -176 72t-176 -72.5t-73 -176.5 q0 -103 73 -176q68 -67 188 -123q192 -62 323 -193q139 -138 139 -334q0 -197 -139 -336t-335 -139t-335 140q-111 111 -133 258z" />
<glyph unicode="T" horiz-adv-x="1000" d="M50 1510v90h900v-90h-405v-1510h-90v1510h-405z" />
<glyph unicode="U" horiz-adv-x="1345" d="M150 508v1092h91v-1092q0 -178 126.5 -304.5t305.5 -126.5t305 126.5t126 304.5v1092h91v-1150q-25 -183 -153 -311q-153 -153 -369 -153q-217 0 -370 153t-153 369z" />
<glyph unicode="V" horiz-adv-x="1291" d="M50 1600h95l500 -1374l500 1374h96l-596 -1637z" />
<glyph unicode="W" horiz-adv-x="1672" d="M125 370v1230h90v-1222q0 -125 90.5 -213.5t214.5 -88.5t214 87q34 34 57 77v1360h90v-1360q23 -43 57 -77q90 -87 214 -87t214.5 88.5t90.5 213.5v1222h90v-1230q-3 -156 -115 -268q-116 -116 -280 -116q-163 0 -279 115q-21 20 -37 41q-16 -21 -37 -41 q-116 -115 -279 -115q-164 0 -279 116q-113 112 -116 268z" />
<glyph unicode="X" horiz-adv-x="1218" d="M50 0l507 879l-416 721h103l364 -632l366 632h103l-418 -721l509 -879h-103l-457 790l-456 -790h-102z" />
<glyph unicode="Y" horiz-adv-x="1291" d="M50 1600h103l492 -853l493 853h103l-551 -953v-647h-90v647z" />
<glyph unicode="Z" horiz-adv-x="1327" d="M150 0l872 1510h-872v90h1027l-873 -1510h873v-90h-1027z" />
<glyph unicode="[" horiz-adv-x="560" d="M125 -375v1975h310v-90h-220v-1795h220v-90h-310z" />
<glyph unicode="\" horiz-adv-x="727" d="M-50 1600h103l724 -1600h-102z" />
<glyph unicode="]" horiz-adv-x="560" d="M125 -285h220v1795h-220v90h310v-1975h-310v90z" />
<glyph unicode="^" horiz-adv-x="921" d="M100 1066l309 534h104l308 -534h-104l-256 443l-256 -443h-105z" />
<glyph unicode="_" horiz-adv-x="1050" d="M25 -30h1000v-90h-1000v90z" />
<glyph unicode="`" horiz-adv-x="629" d="M150 1387h166l163 -187h-84z" />
<glyph unicode="a" horiz-adv-x="1360" d="M125 521q0 228 161 389t388 161q228 0 389 -161q31 -32 57 -67v139h90v-982h-90v200q-26 -35 -57 -67q-161 -161 -389 -161q-227 0 -388 161t-161 388zM220 521q0 -188 133 -320.5t321 -132.5t321 133q100 100 125 231v178q-25 132 -125 232q-133 133 -321 133t-321 -133 t-133 -321z" />
<glyph unicode="b" horiz-adv-x="1359" d="M150 0v1600h90v-756q25 34 57 66q161 161 388 161q228 0 388.5 -161t160.5 -389q0 -227 -160.5 -388t-388.5 -161q-227 0 -388 161q-32 32 -57 66v-199h-90zM240 427q26 -128 124 -226q133 -133 321 -133t321 132.5t133 320.5t-133 321t-321 133t-321 -133 q-98 -98 -124 -227v-188z" />
<glyph unicode="c" horiz-adv-x="1177" d="M90 522q0 227 161 388t388 161q228 0 389 -161q33 -33 59 -68l-95 -35q-15 18 -32 36q-133 132 -321 132q-187 0 -320 -132.5t-133 -320.5t133 -321t320 -133q188 0 321 133q17 17 32 35l95 -34q-26 -36 -59 -69q-161 -161 -389 -161q-227 0 -388 161t-161 389z" />
<glyph unicode="d" horiz-adv-x="1360" d="M125 521q0 228 161 389t388 161q228 0 389 -161q31 -32 57 -67v757h90v-1600h-90v200q-26 -35 -57 -67q-161 -161 -389 -161q-227 0 -388 161t-161 388zM220 521q0 -188 133 -320.5t321 -132.5t321 133q100 100 125 231v178q-25 132 -125 232q-133 133 -321 133 t-321 -133t-133 -321z" />
<glyph unicode="e" horiz-adv-x="1177" d="M90 522q0 227 161 388t388 161q195 0 341 -117q24 -20 48 -44q9 -9 17 -18l-68 -68l-640 -640q127 -116 302 -116q188 0 321 133q17 17 32 35l95 -34q-26 -36 -59 -69q-161 -161 -389 -161q-227 0 -388 161t-161 389zM186 522q0 -155 90 -272l635 635q-117 90 -272 90 q-187 0 -320 -132.5t-133 -320.5z" />
<glyph unicode="f" horiz-adv-x="523" d="M90 892v90h100v266q6 111 85 191q82 76 189 76q56 0 118 -21l-28 -80q-42 18 -81 18q-71 0 -134 -57q-56 -55 -59 -133v-260h200v-90h-200v-892h-90v892h-100z" />
<glyph unicode="g" horiz-adv-x="1364" d="M125 521q0 228 161 388.5t388 160.5q228 0 389 -160q31 -32 57 -67v139h90v-763q0 -221 -157 -378q-161 -161 -388 -161q-228 0 -389 161q-33 33 -59 69l95 34q15 -18 32 -35q133 -133 321 -133q187 0 320 133q121 121 132 286q-25 -32 -54 -62q-161 -161 -389 -161 q-227 0 -388 161t-161 388zM220 521q0 -188 133 -321t321 -133t321 133q97 97 124 225v190q-26 129 -124 227q-133 133 -321 133t-321 -133t-133 -321z" />
<glyph unicode="h" horiz-adv-x="1059" d="M150 0v1600h90v-669q114 110 274 110q174 0 283 -109t112 -275v-657h-90v649q0 125 -90.5 213.5t-214.5 88.5t-214 -87q-40 -40 -60 -83v-781h-90z" />
<glyph unicode="i" d="M125 1241q0 37 26.5 63t63.5 26t63.5 -26t26.5 -63q0 -38 -26.5 -64t-63.5 -26t-63.5 26t-26.5 64zM170 0v982h90v-982h-90z" />
<glyph unicode="j" horiz-adv-x="455" d="M49 -138q121 14 121 136v984h90v-982q0 -211 -211 -228v90zM125 1241q0 37 26.5 63t63.5 26t63.5 -26t26.5 -63q0 -38 -26.5 -64t-63.5 -26t-63.5 26t-26.5 64z" />
<glyph unicode="k" horiz-adv-x="823" d="M150 0v1400h90v-755l273 337h116l-242 -300l386 -682h-112l-333 610l-88 -109v-501h-90z" />
<glyph unicode="l" horiz-adv-x="390" d="M150 0v1600h90v-1600h-90z" />
<glyph unicode="m" horiz-adv-x="1375" d="M150 0v982h90v-23q84 81 201 81q121 0 206 -85q23 -23 40 -50q17 26 41 50q85 85 206 85t206 -85q81 -82 85 -197v-758h-90v758h1q-4 78 -59 133q-60 59 -143 59t-142.5 -59t-59.5 -147v-744h-90v758h1q-4 78 -59 133q-60 59 -143 59t-142 -59q-52 -51 -59 -125v-766h-90 z" />
<glyph unicode="n" horiz-adv-x="1071" d="M150 0v982h90v-63q123 122 286 122q174 0 283 -109t112 -275v-657h-90v649q0 125 -90.5 213.5t-214.5 88.5t-214 -87q-49 -49 -72 -101v-763h-90z" />
<glyph unicode="o" horiz-adv-x="1278" d="M90 521q0 228 161 389t388 161q228 0 388.5 -161t160.5 -389q0 -227 -160.5 -388t-388.5 -161q-227 0 -388 161t-161 388zM185 521q0 -188 133 -320.5t321 -132.5t321 132.5t133 320.5t-133 321t-321 133t-321 -133t-133 -321z" />
<glyph unicode="p" horiz-adv-x="1334" d="M150 -375v1357h90v-138q25 34 57 66q161 160 388 160q228 0 388.5 -160.5t160.5 -388.5q0 -227 -160.5 -388t-388.5 -161q-227 0 -388 161q-32 32 -57 66v-574h-90zM240 427q26 -129 124 -227q133 -133 321 -133t321 133t133 321t-133 321t-321 133t-321 -133 q-98 -98 -124 -227v-188z" />
<glyph unicode="q" horiz-adv-x="1335" d="M100 521q0 228 161 388.5t388 160.5q228 0 389 -160q31 -32 57 -67v139h90v-1357h-90v575q-26 -35 -57 -67q-161 -161 -389 -161q-227 0 -388 161t-161 388zM195 521q0 -188 133 -321t321 -133t321 133q100 100 125 232v178q-25 132 -125 232q-133 133 -321 133 t-321 -133t-133 -321z" />
<glyph unicode="r" horiz-adv-x="599" d="M150 0v982h90v-179q28 40 65 77q119 119 244 125v-98q-85 -4 -176 -95q-128 -127 -133 -305v-507h-90z" />
<glyph unicode="s" horiz-adv-x="802" d="M115 249l89 23q0 -88 59.5 -147t142.5 -59t142.5 59t59.5 144q0 83 -59 142q-32 32 -129 94q-115 62 -159 106q-69 69 -69 166q0 98 69 167.5t166 69.5q98 0 162 -64q62 -63 62 -143v-5l-78 -31q-10 76 -47.5 114t-98.5 38q-60 0 -103 -42.5t-43 -103.5q0 -60 43 -103 q25 -25 106 -76q128 -70 182 -124q85 -86 85 -205q0 -122 -85 -207.5t-206 -85.5t-206 85.5t-85 187.5z" />
<glyph unicode="t" horiz-adv-x="670" d="M90 892v90h200v418h90v-418h200v-90h-200v-892h-90v892h-200z" />
<glyph unicode="u" horiz-adv-x="1099" d="M150 370v612h90v-604q0 -125 91 -213q90 -89 223 -89q124 0 214.5 88.5t90.5 213.5v604h90v-612q-3 -166 -112 -275t-282 -109q-184 0 -293 109t-112 275z" />
<glyph unicode="v" horiz-adv-x="1064" d="M50 982h104l378 -818l378 818h104l-482 -1009z" />
<glyph unicode="w" horiz-adv-x="1375" d="M150 268v714h90v-714h-1q4 -78 60 -133q59 -59 142 -59t143 59q51 51 58 125v722h90v-700q0 -88 59.5 -147t142.5 -59t143 59q55 55 59 133h-1v714h90v-714q-4 -115 -85 -196q-85 -86 -206 -86t-206 86q-23 23 -40 48q-17 -25 -41 -48q-85 -86 -206 -86t-206 86 q-81 81 -85 196z" />
<glyph unicode="x" horiz-adv-x="871" d="M75 0l309 534l3 5l-3 5l-253 438h104l201 -347l200 347h105l-253 -438l-3 -5l3 -5l308 -534h-104l-256 443l-256 -443h-105z" />
<glyph unicode="y" horiz-adv-x="1005" d="M75 982h102l326 -704l326 704h101l-427 -895v1l-222 -463h-88l265 556z" />
<glyph unicode="z" horiz-adv-x="1000" d="M150 0l507 892h-507v90h662l-508 -892h546v-90h-700z" />
<glyph unicode="{" horiz-adv-x="866" d="M125 572v81q9 -3 20 -3q46 0 123 44q115 66 151 195q19 72 19 152q0 44 -6 90q-14 72 -14 135q0 67 16 126q30 112 133 170q65 38 136 38q19 0 38 -3v-75q-18 3 -36 3q-52 0 -101 -27q-75 -43 -97 -126q-15 -55 -15 -125q0 -30 3 -64q16 -76 16 -149q0 -85 -21 -165 q-44 -158 -185 -239q-17 -9 -35 -17q18 -9 35 -18q141 -81 185 -239q21 -80 21 -165q0 -73 -16 -149q-3 -34 -3 -64q0 -70 15 -125q22 -83 97 -125q51 -28 104 -28q16 0 33 2v-74q-19 -3 -38 -3q-71 0 -136 38q-103 58 -133 171q-16 59 -16 126q0 63 14 134q6 46 6 90 q0 80 -19 152q-36 129 -151 195q-77 44 -123 44q-11 0 -20 -3z" />
<glyph unicode="|" horiz-adv-x="390" d="M150 -375v1975h90v-1975h-90z" />
<glyph unicode="}" horiz-adv-x="866" d="M125 -298q17 -2 33 -2q53 0 104 28q75 42 97 125q15 55 15 125q0 30 -3 64q-16 76 -16 149q0 85 21 165q44 158 185 239q17 9 35 18q-18 8 -35 17q-141 81 -185 239q-21 80 -21 165q0 73 16 149q3 34 3 64q0 70 -15 125q-22 83 -97 126q-49 27 -101 27q-18 0 -36 -3v75 q19 3 38 3q71 0 136 -38q103 -58 133 -170q16 -59 16 -126q0 -63 -14 -135q-6 -46 -6 -90q0 -80 19 -152q36 -129 151 -195q77 -44 123 -44q11 0 20 3v-81q-9 3 -20 3q-46 0 -123 -44q-115 -66 -151 -195q-19 -72 -19 -152q0 -44 6 -90q14 -71 14 -134q0 -67 -16 -126 q-30 -113 -133 -171q-65 -38 -136 -38q-19 0 -38 3v74z" />
<glyph unicode="~" horiz-adv-x="1277" d="M125 707q2 48 22 97q46 111 157 148q25 8 55 8q106 0 279 -99q188 -109 273 -109q15 0 27 3q77 23 108 100q15 38 15 77l91 -14q-4 -48 -23 -97q-46 -111 -156 -148q-25 -8 -56 -8q-105 0 -278 99q-190 109 -274 109q-14 0 -26 -3q-77 -23 -108 -100q-15 -39 -16 -77z " />
<glyph unicode="&#xa1;" d="M125 1528q0 38 26.5 64t63.5 26t63.5 -26t26.5 -64q0 -37 -26.5 -63t-63.5 -26t-63.5 26t-26.5 63zM172 4v1324h90v-1324h-90z" />
<glyph unicode="&#xa2;" horiz-adv-x="1013" d="M99 1062q0 184 131 315q100 100 231 124v161h90v-154q180 -2 309 -131q26 -27 52 -61l-87 -33q-15 18 -28 32q-103 102 -246 104v-714q143 2 246 105q13 13 28 31l87 -32q-26 -35 -52 -62q-129 -129 -309 -131v-154h-90v161q-131 23 -231 124q-131 130 -131 315z M188 1062q0 -148 105 -252q73 -74 168 -96v696q-95 -22 -168 -95q-105 -105 -105 -253z" />
<glyph unicode="&#xa3;" horiz-adv-x="1130" d="M100 20q124 110 156 149q108 128 108 292q0 22 -2 44q-2 25 -6 50h-228v90h209q-26 95 -75 189q-111 180 -125 343q-2 19 -2 38q0 139 92 249q103 123 266 138q19 1 38 1q139 0 250 -92q124 -105 139 -267q3 -23 3 -44q0 -63 -22 -114l-86 29q15 43 15 95q0 14 -1 28 q-12 123 -107 203q-84 70 -190 70q-14 0 -28 -1q-124 -11 -204 -106q-70 -84 -70 -189q0 -15 1 -30q10 -113 78 -256q86 -138 122 -284h197v-90h-180q3 -21 5 -43t2 -44q0 -204 -170 -405q125 45 246 45q72 0 143 -16q99 -23 188 -23q80 0 151 18l17 -89q-81 -20 -168 -20 q-89 0 -183 22q-98 21 -173 21q-68 0 -117 -17q-104 -38 -202 -87z" />
<glyph unicode="&#xa4;" horiz-adv-x="1112" d="M100 753l139 139q-89 108 -89 253t89 253l-139 139l64 64l139 -139q108 89 253 89t253 -89l139 139l64 -64l-139 -139q89 -108 89 -253t-89 -253l139 -139l-64 -64l-139 139q-108 -89 -253 -89t-253 89l-139 -139zM240 1145q0 -108 63 -189q13 -18 30 -34q16 -17 34 -30 q81 -63 189 -63t189 63q18 13 35 30q16 16 29 34q63 81 63 189t-63 189q-13 18 -29 35q-17 16 -35 29q-81 63 -189 63t-189 -63q-18 -13 -34 -29q-17 -17 -30 -35q-63 -81 -63 -189z" />
<glyph unicode="&#xa5;" horiz-adv-x="1291" d="M50 1600h103l487 -845h10l488 845h103l-489 -845h294v-90h-346l-10 -18v-102h356v-90h-356v-455h-90v455h-354v90h354v102l-10 18h-344v90h292z" />
<glyph unicode="&#xa6;" horiz-adv-x="390" d="M150 -375v849h90v-849h-90zM150 751v849h90v-849h-90z" />
<glyph unicode="&#xa7;" horiz-adv-x="1158" d="M100 1025q0 197 89 286q36 36 61 51q-5 29 -5 61q0 138 99 237.5t240 99.5q140 0 240 -99q55 -53 76 -119l-81 -32q-18 49 -59 90q-73 72 -176 72t-176 -72.5t-73 -176.5q0 -103 73 -176q68 -67 188 -123q192 -62 323 -193q139 -138 139 -334q0 -197 -89 -286 q-36 -36 -61 -51q5 -29 5 -61q0 -138 -99 -237.5t-240 -99.5q-140 0 -240 99q-55 53 -76 119l81 32q18 -49 59 -90q73 -72 176 -72t176 72.5t73 176.5q0 103 -73 176q-68 67 -188 123q-192 62 -323 193q-139 138 -139 334zM188 1025q0 -159 113 -272q99 -99 243 -158 q171 -57 270 -156q43 -43 67 -94q11 14 26 29q63 63 63 223q0 159 -113 272q-99 99 -243 158q-171 57 -270 156q-43 43 -67 94q-11 -14 -26 -29q-63 -63 -63 -223z" />
<glyph unicode="&#xa8;" horiz-adv-x="730" d="M125 1241q0 37 26.5 63t63.5 26t63.5 -26t26.5 -63q0 -38 -26.5 -64t-63.5 -26t-63.5 26t-26.5 64zM425 1241q0 37 26.5 63t63.5 26t63.5 -26t26.5 -63q0 -38 -26.5 -64t-63.5 -26t-63.5 26t-26.5 64z" />
<glyph unicode="&#xa9;" horiz-adv-x="1405" d="M99 603q0 249 176 425t425 176q248 0 424 -176t176 -425t-176 -425t-424 -176q-249 0 -425 176t-176 425zM170 603q0 -219 155 -374.5t375 -155.5q219 0 374 155.5t155 374.5q0 220 -155 375t-374 155q-220 0 -375 -155t-155 -375zM380 603q0 137 97 234t234 97t234 -97 q20 -20 40 -48l-68 -25q-11 14 -21 25q-77 76 -185 76t-185 -76.5t-77 -185.5q0 -108 77 -185t185 -77t185 77q10 10 21 24l68 -25q-20 -28 -40 -48q-97 -97 -234 -97t-234 97t-97 234z" />
<glyph unicode="&#xaa;" horiz-adv-x="878" d="M100 913v628h31v-597h575v-31h-606zM243 1329q0 112 79 191.5t192 79.5q112 0 192 -79q15 -16 17 -19v55h55v-486h-55v85q-2 -3 -17 -19q-80 -79 -192 -79q-113 0 -192 79.5t-79 191.5zM300 1329q0 -89 62.5 -151t151.5 -62q88 0 150 62q48 47 59 108v85q-11 62 -59 109 q-62 62 -150 62q-89 0 -151.5 -62.5t-62.5 -150.5z" />
<glyph unicode="&#xab;" horiz-adv-x="980" d="M100 462l429 460v-104l-331 -356l331 -356v-105zM444 462l436 460v-104l-331 -356l331 -356v-105z" />
<glyph unicode="&#xad;" horiz-adv-x="840" d="M125 547v90h590v-90h-590z" />
<glyph unicode="&#xae;" horiz-adv-x="1161" d="M100 1119q0 199 140.5 340t340.5 141q198 0 339 -141t141 -340t-141 -340q-49 -49 -137.5 -95t-201.5 -46q-200 0 -340.5 141t-140.5 340zM157 1119q0 -175 124 -300q59 -58 129 -89q28 -13 58 -21q53 -14 113 -14q78 0 149 26l-138 215h-125v-155h-55v644h198 q86 -12 146 -72q71 -71 71 -172q0 -102 -71 -174q-50 -49 -104 -62l130 -200q53 30 98 74q124 125 124 300q0 176 -124 300t-299 124q-176 0 -300 -124t-124 -300zM467 993h116q78 0 133.5 55.5t55.5 133.5t-55.5 133.5t-133.5 55.5h-116v-378z" />
<glyph unicode="&#xaf;" horiz-adv-x="840" d="M125 1337v90h590v-90h-590z" />
<glyph unicode="&#xb0;" horiz-adv-x="762" d="M150 1369q0 96 67.5 163.5t163.5 67.5t163.5 -67.5t67.5 -163.5t-67.5 -163.5t-163.5 -67.5t-163.5 67.5t-67.5 163.5zM221 1369q0 -66 47 -113t113 -47t113 47t47 113t-47 113t-113 47t-113 -47t-47 -113z" />
<glyph unicode="&#xb1;" horiz-adv-x="1050" d="M125 0v90h800v-90h-800zM125 547v90h355v355h90v-355h355v-90h-355v-355h-90v355h-355z" />
<glyph unicode="&#xb2;" horiz-adv-x="899" d="M125 1365q16 98 91 168q96 89 232 89q137 0 231.5 -87.5t94.5 -209.5q0 -120 -91 -211q-62 -62 -145 -119t-189 -130q-97 -68 -119 -162h544v-74h-646q32 200 141.5 275.5t191.5 132t151 126.5t69 162q0 93 -69 156.5t-164 63.5q-94 0 -162 -63q-60 -55 -71 -148z" />
<glyph unicode="&#xb3;" horiz-adv-x="899" d="M125 873l90 30q11 -93 71 -148q68 -62 162 -62q95 0 164 63.5t69 155.5q0 93 -67.5 161t-201.5 92l-63 1v74q73 0 108 12.5t77.5 54.5t42.5 101t-42.5 98.5t-101.5 39.5q-58 0 -100 -38q-24 -23 -41 -65l-84 30q17 51 55 84q71 65 170 65q101 0 169.5 -64t68.5 -150 q0 -88 -51.5 -139t-72.5 -59q71 -22 136 -86q91 -91 91 -212t-94.5 -208.5t-231.5 -87.5q-136 0 -232 89q-75 69 -91 168z" />
<glyph unicode="&#xb4;" horiz-adv-x="629" d="M150 1200l163 187h166l-245 -187h-84z" />
<glyph unicode="&#xb5;" horiz-adv-x="1046" d="M150 -375v1357h90v-731q20 -43 60 -83q90 -87 214 -87t215 89q58 57 79 130v682h88v-982h-88v111l-11 -11q-109 -109 -283 -109q-160 0 -274 110v-476h-90z" />
<glyph unicode="&#xb6;" horiz-adv-x="1135" d="M51 1169q0 216 153 369q128 128 311 153h80v1h491v-90h-88v-1977h-90v1977h-93v-1977h-90v1021h-152q-216 0 -369 153t-153 370z" />
<glyph unicode="&#xb7;" horiz-adv-x="403" d="M125 800q0 32 22.5 54t54.5 22q31 0 53.5 -22t22.5 -54t-22.5 -54t-53.5 -22q-32 0 -54.5 22t-22.5 54z" />
<glyph unicode="&#xb8;" horiz-adv-x="257" d="M10 -308l11 55q21 -7 46 -7q45 0 74 23q25 19 25 46v7q-5 32 -40 55q-35 21 -77 22l43 107h64l-3 -29l-1 -6h1l-3 -40q14 -7 28 -15q60 -39 68 -94q1 -7 1 -14q0 -45 -43 -78q-51 -39 -130 -39q-34 0 -64 7z" />
<glyph unicode="&#xb9;" horiz-adv-x="899" d="M368 1485l97 115h65v-980h-90v865h-72z" />
<glyph unicode="&#xba;" horiz-adv-x="914" d="M100 913v628h31v-597h575v-31h-606zM243 1329q0 112 79 191.5t192 79.5h29q113 0 192 -79.5t79 -191.5t-79 -191.5t-192 -79.5h-29q-113 0 -192 79.5t-79 191.5zM300 1329q0 -89 63 -151q57 -57 166 -62q108 5 166 62q62 62 62 151q0 88 -62 151q-58 57 -166 62 q-109 -5 -166 -62q-63 -63 -63 -151z" />
<glyph unicode="&#xbb;" horiz-adv-x="980" d="M100 1v105l331 356l-331 356v104l436 -460zM451 1v105l331 356l-331 356v104l429 -460z" />
<glyph unicode="&#xbf;" horiz-adv-x="956" d="M151 403q0 74 35 146q61 127 203 237q117 103 177 229q40 82 40 166q0 64 -23 129l83 29q28 -80 28 -158q0 -104 -49 -204q-80 -167 -241 -289q-95 -92 -136 -178q-26 -53 -26 -108q0 -41 14 -82q35 -98 128 -143q53 -25 107 -25q41 0 83 15q97 34 142 126q25 52 25 105 l88 -4v-8q0 -65 -32 -129q-62 -127 -194 -173q-58 -20 -114 -20q-74 0 -146 34q-126 61 -172 192q-20 57 -20 113zM540 1528q0 38 26.5 64t63.5 26t63.5 -26t26.5 -64q0 -37 -26.5 -63t-63.5 -26t-63.5 26t-26.5 63z" />
<glyph unicode="&#xc0;" horiz-adv-x="1291" d="M50 0l596 1637l595 -1637h-95l-223 613h-554l-223 -613h-96zM402 703h488l-244 671zM426 2005h166l163 -187h-84z" />
<glyph unicode="&#xc1;" horiz-adv-x="1291" d="M50 0l596 1637l595 -1637h-95l-223 613h-554l-223 -613h-96zM402 703h488l-244 671zM536 1818l163 187h166l-245 -187h-84z" />
<glyph unicode="&#xc2;" horiz-adv-x="1291" d="M50 0l596 1637l595 -1637h-95l-223 613h-554l-223 -613h-96zM360 1708l229 234h104l238 -234h-104l-186 143l-176 -143h-105zM402 703h488l-244 671z" />
<glyph unicode="&#xc3;" horiz-adv-x="1291" d="M50 0l596 1637l595 -1637h-95l-223 613h-554l-223 -613h-96zM383 1760q22 129 100 152q21 6 42 6q57 0 115 -45q75 -60 124 -60h5q50 3 70 84h69q-21 -129 -99 -152q-21 -6 -42 -6q-57 0 -115 46q-75 59 -124 59h-5q-50 -3 -70 -84h-70zM402 703h488l-244 671z" />
<glyph unicode="&#xc4;" horiz-adv-x="1291" d="M50 0l596 1637l595 -1637h-95l-223 613h-554l-223 -613h-96zM402 703h488l-244 671zM406 1859q0 37 26.5 63t63.5 26t63.5 -26t26.5 -63q0 -38 -26.5 -64t-63.5 -26t-63.5 26t-26.5 64zM706 1859q0 37 26.5 63t63.5 26t63.5 -26t26.5 -63q0 -38 -26.5 -64t-63.5 -26 t-63.5 26t-26.5 64z" />
<glyph unicode="&#xc5;" horiz-adv-x="1291" d="M50 0l596 1637l595 -1637h-95l-223 613h-554l-223 -613h-96zM402 703h488l-244 671zM523 1857q0 51 36 87t87 36t87 -36t36 -87q0 -50 -36 -86t-87 -36t-87 36t-36 86zM588 1857q0 -23 17 -40t41 -17q23 0 40 17t17 40q0 24 -17 41t-40 17q-24 0 -41 -17t-17 -41z" />
<glyph unicode="&#xc6;" horiz-adv-x="1676" d="M40 0l711 1597v3h800v-90h-710v-665h710v-90h-710v-665h710v-90h-800v613h-322l-263 -613h-126zM462 703h289v670z" />
<glyph unicode="&#xc7;" horiz-adv-x="1595" d="M125 800q0 339 239.5 579t579.5 240q317 0 551 -213l-68 -62q-206 183 -483 183q-301 0 -514 -213t-213 -514q0 -302 213 -515t514 -213q277 0 483 183l68 -61q-234 -213 -551 -213q-55 0 -107 6l-2 -16l-1 -6h1l-3 -40q14 -7 28 -15q60 -39 68 -94q1 -7 1 -14 q0 -45 -43 -78q-51 -39 -130 -39q-34 0 -64 7l11 55q21 -7 46 -7q45 0 74 23q25 19 25 46v7q-5 32 -40 55q-35 21 -77 22l42 104q-232 47 -408 224q-240 239 -240 579z" />
<glyph unicode="&#xc8;" horiz-adv-x="1075" d="M150 0v1600h800v-90h-710v-665h710v-90h-710v-665h710v-90h-800zM331 2005h166l163 -187h-84z" />
<glyph unicode="&#xc9;" horiz-adv-x="1075" d="M150 0v1600h800v-90h-710v-665h710v-90h-710v-665h710v-90h-800zM440 1818l163 187h166l-245 -187h-84z" />
<glyph unicode="&#xca;" horiz-adv-x="1075" d="M150 0v1600h800v-90h-710v-665h710v-90h-710v-665h710v-90h-800zM265 1708l229 234h104l238 -234h-104l-186 143l-176 -143h-105z" />
<glyph unicode="&#xcb;" horiz-adv-x="1075" d="M150 0v1600h800v-90h-710v-665h710v-90h-710v-665h710v-90h-800zM310 1859q0 37 26.5 63t63.5 26t63.5 -26t26.5 -63q0 -38 -26.5 -64t-63.5 -26t-63.5 26t-26.5 64zM610 1859q0 37 26.5 63t63.5 26t63.5 -26t26.5 -63q0 -38 -26.5 -64t-63.5 -26t-63.5 26t-26.5 64z" />
<glyph unicode="&#xcc;" d="M-4 2005h166l163 -187h-84zM170 0v1600h90v-1600h-90z" />
<glyph unicode="&#xcd;" d="M105 1818l163 187h166l-245 -187h-84zM170 0v1600h90v-1600h-90z" />
<glyph unicode="&#xce;" d="M-70 1708l229 234h104l238 -234h-104l-186 143l-176 -143h-105zM171 0v1600h90v-1600h-90z" />
<glyph unicode="&#xcf;" d="M-25 1859q0 37 26.5 63t63.5 26t63.5 -26t26.5 -63q0 -38 -26.5 -64t-63.5 -26t-63.5 26t-26.5 64zM170 0v1600h90v-1600h-90zM275 1859q0 37 26.5 63t63.5 26t63.5 -26t26.5 -63q0 -38 -26.5 -64t-63.5 -26t-63.5 26t-26.5 64z" />
<glyph unicode="&#xd0;" horiz-adv-x="1284" d="M50 755v90h160v755h90v-2h7q395 0 612 -218q240 -241 240 -580q0 -340 -240 -580q-217 -218 -612 -218h-7v-2h-90v755h-160zM300 93h7q356 0 547 192q213 213 213 515q0 301 -213 515q-191 191 -547 191h-7v-661h370v-90h-370v-662z" />
<glyph unicode="&#xd1;" horiz-adv-x="1311" d="M150 0v1600h99l822 -1423v1423h90v-1600h-90l-831 1437v-1437h-90zM393 1760q22 129 100 152q21 6 42 6q57 0 115 -45q75 -60 124 -60h5q50 3 70 84h69q-21 -129 -99 -152q-21 -6 -42 -6q-57 0 -115 46q-75 59 -124 59h-5q-50 -3 -70 -84h-70z" />
<glyph unicode="&#xd2;" horiz-adv-x="1892" d="M125 802q0 340 240.5 580.5t580.5 240.5t580.5 -240.5t240.5 -580.5t-240.5 -580.5t-580.5 -240.5t-580.5 240.5t-240.5 580.5zM217 802q0 -302 213.5 -516t515.5 -214t515.5 214t213.5 516t-213.5 515.5t-515.5 213.5t-515.5 -213.5t-213.5 -515.5zM727 2005h166 l163 -187h-84z" />
<glyph unicode="&#xd3;" horiz-adv-x="1892" d="M125 802q0 340 240.5 580.5t580.5 240.5t580.5 -240.5t240.5 -580.5t-240.5 -580.5t-580.5 -240.5t-580.5 240.5t-240.5 580.5zM217 802q0 -302 213.5 -516t515.5 -214t515.5 214t213.5 516t-213.5 515.5t-515.5 213.5t-515.5 -213.5t-213.5 -515.5zM836 1818l163 187 h166l-245 -187h-84z" />
<glyph unicode="&#xd4;" horiz-adv-x="1892" d="M125 802q0 340 240.5 580.5t580.5 240.5t580.5 -240.5t240.5 -580.5t-240.5 -580.5t-580.5 -240.5t-580.5 240.5t-240.5 580.5zM217 802q0 -302 213.5 -516t515.5 -214t515.5 214t213.5 516t-213.5 515.5t-515.5 213.5t-515.5 -213.5t-213.5 -515.5zM661 1708l229 234 h104l238 -234h-104l-186 143l-176 -143h-105z" />
<glyph unicode="&#xd5;" horiz-adv-x="1892" d="M125 802q0 340 240.5 580.5t580.5 240.5t580.5 -240.5t240.5 -580.5t-240.5 -580.5t-580.5 -240.5t-580.5 240.5t-240.5 580.5zM217 802q0 -302 213.5 -516t515.5 -214t515.5 214t213.5 516t-213.5 515.5t-515.5 213.5t-515.5 -213.5t-213.5 -515.5zM684 1760 q22 129 100 152q21 6 42 6q57 0 115 -45q75 -60 124 -60h5q50 3 70 84h69q-21 -129 -99 -152q-21 -6 -42 -6q-57 0 -115 46q-75 59 -124 59h-5q-50 -3 -70 -84h-70z" />
<glyph unicode="&#xd6;" horiz-adv-x="1892" d="M125 802q0 340 240.5 580.5t580.5 240.5t580.5 -240.5t240.5 -580.5t-240.5 -580.5t-580.5 -240.5t-580.5 240.5t-240.5 580.5zM217 802q0 -302 213.5 -516t515.5 -214t515.5 214t213.5 516t-213.5 515.5t-515.5 213.5t-515.5 -213.5t-213.5 -515.5zM706 1859 q0 37 26.5 63t63.5 26t63.5 -26t26.5 -63q0 -38 -26.5 -64t-63.5 -26t-63.5 26t-26.5 64zM1006 1859q0 37 26.5 63t63.5 26t63.5 -26t26.5 -63q0 -38 -26.5 -64t-63.5 -26t-63.5 26t-26.5 64z" />
<glyph unicode="&#xd7;" horiz-adv-x="1050" d="M210 341l251 251l-251 251l64 64l251 -251l251 251l63 -64l-251 -251l251 -251l-63 -64l-251 251l-251 -251z" />
<glyph unicode="&#xd8;" horiz-adv-x="1892" d="M125 802q0 340 240.5 580.5t580.5 240.5q165 0 306 -57l86 184l82 -38l-86 -184q103 -56 193 -145q240 -241 240 -581t-240.5 -580.5t-580.5 -240.5q-165 0 -306 57l-86 -184l-82 38l86 184q-103 56 -192 146q-241 240 -241 580zM217 802q0 -302 214 -516 q77 -77 166 -127l616 1324q-123 48 -267 48q-302 0 -515.5 -213.5t-213.5 -515.5zM678 121q124 -49 268 -49q302 0 515.5 214t213.5 516t-213 516q-78 77 -167 126z" />
<glyph unicode="&#xd9;" horiz-adv-x="1345" d="M150 508v1092h91v-1092q0 -178 126.5 -304.5t305.5 -126.5t305 126.5t126 304.5v1092h91v-1150q-25 -183 -153 -311q-153 -153 -369 -153q-217 0 -370 153t-153 369zM453 2005h166l163 -187h-84z" />
<glyph unicode="&#xda;" horiz-adv-x="1345" d="M150 508v1092h91v-1092q0 -178 126.5 -304.5t305.5 -126.5t305 126.5t126 304.5v1092h91v-1150q-25 -183 -153 -311q-153 -153 -369 -153q-217 0 -370 153t-153 369zM563 1818l163 187h166l-245 -187h-84z" />
<glyph unicode="&#xdb;" horiz-adv-x="1345" d="M150 508v1092h91v-1092q0 -178 126.5 -304.5t305.5 -126.5t305 126.5t126 304.5v1092h91v-1150q-25 -183 -153 -311q-153 -153 -369 -153q-217 0 -370 153t-153 369zM387 1708l229 234h104l238 -234h-104l-186 143l-176 -143h-105z" />
<glyph unicode="&#xdc;" horiz-adv-x="1345" d="M150 508v1092h91v-1092q0 -178 126.5 -304.5t305.5 -126.5t305 126.5t126 304.5v1092h91v-1150q-25 -183 -153 -311q-153 -153 -369 -153q-217 0 -370 153t-153 369zM433 1859q0 37 26.5 63t63.5 26t63.5 -26t26.5 -63q0 -38 -26.5 -64t-63.5 -26t-63.5 26t-26.5 64z M733 1859q0 37 26.5 63t63.5 26t63.5 -26t26.5 -63q0 -38 -26.5 -64t-63.5 -26t-63.5 26t-26.5 64z" />
<glyph unicode="&#xdd;" horiz-adv-x="1291" d="M50 1600h103l492 -853l493 853h103l-551 -953v-647h-90v647zM536 1818l163 187h166l-245 -187h-84z" />
<glyph unicode="&#xde;" horiz-adv-x="1124" d="M150 0v1600h90v-277h330q183 -25 311 -153q153 -153 153 -369q0 -217 -153 -370t-369 -153h-272v-278h-90zM240 369h272q178 0 304.5 126.5t126.5 305.5t-126.5 305t-304.5 126h-272v-863z" />
<glyph unicode="&#xdf;" horiz-adv-x="1084" d="M140 0v1281q10 162 85 242t206 85h16q121 0 206 -70q91 -75 99 -227v-17q0 -140 -129 -222q358 -143 371 -521q0 -227 -160 -393q-149 -154 -356 -157v-1h-167v90h167v-1q167 11 288 137q133 137 133 325t-133 321t-355 133v96q139 7 196 59.5t57 141.5q0 88 -56 152 q-53 60 -151 60h-11q-106 -4 -158 -65.5t-58 -182.5v-1266h-90z" />
<glyph unicode="&#xe0;" horiz-adv-x="1360" d="M125 521q0 228 161 389t388 161q228 0 389 -161q31 -32 57 -67v139h90v-982h-90v200q-26 -35 -57 -67q-161 -161 -389 -161q-227 0 -388 161t-161 388zM220 521q0 -188 133 -320.5t321 -132.5t321 133q100 100 125 231v178q-25 132 -125 232q-133 133 -321 133t-321 -133 t-133 -321zM448 1387h166l163 -187h-84z" />
<glyph unicode="&#xe1;" horiz-adv-x="1360" d="M125 521q0 228 161 389t388 161q228 0 389 -161q31 -32 57 -67v139h90v-982h-90v200q-26 -35 -57 -67q-161 -161 -389 -161q-227 0 -388 161t-161 388zM220 521q0 -188 133 -320.5t321 -132.5t321 133q100 100 125 231v178q-25 132 -125 232q-133 133 -321 133t-321 -133 t-133 -321zM558 1200l163 187h166l-245 -187h-84z" />
<glyph unicode="&#xe2;" horiz-adv-x="1360" d="M125 521q0 228 161 389t388 161q228 0 389 -161q31 -32 57 -67v139h90v-982h-90v200q-26 -35 -57 -67q-161 -161 -389 -161q-227 0 -388 161t-161 388zM220 521q0 -188 133 -320.5t321 -132.5t321 133q100 100 125 231v178q-25 132 -125 232q-133 133 -321 133t-321 -133 t-133 -321zM382 1090l229 234h104l238 -234h-104l-186 143l-176 -143h-105z" />
<glyph unicode="&#xe3;" horiz-adv-x="1360" d="M125 521q0 228 161 389t388 161q228 0 389 -161q31 -32 57 -67v139h90v-982h-90v200q-26 -35 -57 -67q-161 -161 -389 -161q-227 0 -388 161t-161 388zM220 521q0 -188 133 -320.5t321 -132.5t321 133q100 100 125 231v178q-25 132 -125 232q-133 133 -321 133t-321 -133 t-133 -321zM405 1142q22 129 100 152q21 6 42 6q57 0 115 -45q75 -60 124 -60h5q50 3 70 84h69q-21 -129 -99 -152q-21 -6 -42 -6q-57 0 -115 46q-75 59 -124 59h-5q-50 -3 -70 -84h-70z" />
<glyph unicode="&#xe4;" horiz-adv-x="1360" d="M125 521q0 228 161 389t388 161q228 0 389 -161q31 -32 57 -67v139h90v-982h-90v200q-26 -35 -57 -67q-161 -161 -389 -161q-227 0 -388 161t-161 388zM220 521q0 -188 133 -320.5t321 -132.5t321 133q100 100 125 231v178q-25 132 -125 232q-133 133 -321 133t-321 -133 t-133 -321zM428 1241q0 37 26.5 63t63.5 26t63.5 -26t26.5 -63q0 -38 -26.5 -64t-63.5 -26t-63.5 26t-26.5 64zM728 1241q0 37 26.5 63t63.5 26t63.5 -26t26.5 -63q0 -38 -26.5 -64t-63.5 -26t-63.5 26t-26.5 64z" />
<glyph unicode="&#xe5;" horiz-adv-x="1360" d="M125 521q0 228 161 389t388 161q228 0 389 -161q31 -32 57 -67v139h90v-982h-90v200q-26 -35 -57 -67q-161 -161 -389 -161q-227 0 -388 161t-161 388zM220 521q0 -188 133 -320.5t321 -132.5t321 133q100 100 125 231v178q-25 132 -125 232q-133 133 -321 133t-321 -133 t-133 -321zM545 1239q0 51 36 87t87 36t87 -36t36 -87q0 -50 -36 -86t-87 -36t-87 36t-36 86zM610 1239q0 -23 17 -40t41 -17q23 0 40 17t17 40q0 24 -17 41t-40 17q-24 0 -41 -17t-17 -41z" />
<glyph unicode="&#xe6;" horiz-adv-x="2171" d="M90 521q0 228 161 389t388 161q228 0 389 -161q31 -32 57 -67v139h90v-54q155 143 369 143q228 0 389 -161q142 -143 148 -338l-906 1v-317q21 -29 48 -55q133 -133 321 -133t321 133q23 23 43 48l96 -34q-17 -28 -71 -82q-161 -161 -389 -161q-214 0 -369 143v-115h-90 v200q-26 -35 -57 -67q-161 -161 -389 -161q-227 0 -388 161t-161 388zM185 521q0 -188 133 -320.5t321 -132.5t321 133q48 48 78 102q34 60 47 129v178q-13 69 -47 129q-30 55 -78 103q-133 133 -321 133t-321 -133t-133 -321zM1175 663h798q-32 103 -108 179 q-133 133 -321 133t-321 -133q-27 -27 -48 -55v-124z" />
<glyph unicode="&#xe7;" horiz-adv-x="1177" d="M90 522q0 227 161 388t388 161q228 0 389 -161q33 -33 59 -68l-95 -35q-15 18 -32 36q-133 132 -321 132q-187 0 -320 -132.5t-133 -320.5t133 -321t320 -133q188 0 321 133q17 17 32 35l95 -34q-26 -36 -59 -69q-161 -161 -389 -161q-13 0 -26 1v-2l-1 -6h1l-3 -40 q14 -7 28 -15q60 -39 68 -94q1 -7 1 -14q0 -45 -43 -78q-51 -39 -130 -39q-34 0 -64 7l11 55q21 -7 46 -7q45 0 74 23q25 19 25 46v7q-5 32 -40 55q-35 21 -77 22l35 87q-167 27 -293 153q-161 161 -161 389z" />
<glyph unicode="&#xe8;" horiz-adv-x="1177" d="M90 522q0 227 161 388t388 161q195 0 341 -117q24 -20 48 -44q9 -9 17 -18l-68 -68l-640 -640q127 -116 302 -116q188 0 321 133q17 17 32 35l95 -34q-26 -36 -59 -69q-161 -161 -389 -161q-227 0 -388 161t-161 389zM186 522q0 -155 90 -272l635 635q-117 90 -272 90 q-187 0 -320 -132.5t-133 -320.5zM369 1387h166l163 -187h-84z" />
<glyph unicode="&#xe9;" horiz-adv-x="1177" d="M90 522q0 227 161 388t388 161q195 0 341 -117q24 -20 48 -44q9 -9 17 -18l-68 -68l-640 -640q127 -116 302 -116q188 0 321 133q17 17 32 35l95 -34q-26 -36 -59 -69q-161 -161 -389 -161q-227 0 -388 161t-161 389zM186 522q0 -155 90 -272l635 635q-117 90 -272 90 q-187 0 -320 -132.5t-133 -320.5zM479 1200l163 187h166l-245 -187h-84z" />
<glyph unicode="&#xea;" horiz-adv-x="1177" d="M90 522q0 227 161 388t388 161q195 0 341 -117q24 -20 48 -44q9 -9 17 -18l-68 -68l-640 -640q127 -116 302 -116q188 0 321 133q17 17 32 35l95 -34q-26 -36 -59 -69q-161 -161 -389 -161q-227 0 -388 161t-161 389zM186 522q0 -155 90 -272l635 635q-117 90 -272 90 q-187 0 -320 -132.5t-133 -320.5zM303 1090l229 234h104l238 -234h-104l-186 143l-176 -143h-105z" />
<glyph unicode="&#xeb;" horiz-adv-x="1177" d="M90 522q0 227 161 388t388 161q195 0 341 -117q24 -20 48 -44q9 -9 17 -18l-68 -68l-640 -640q127 -116 302 -116q188 0 321 133q17 17 32 35l95 -34q-26 -36 -59 -69q-161 -161 -389 -161q-227 0 -388 161t-161 389zM186 522q0 -155 90 -272l635 635q-117 90 -272 90 q-187 0 -320 -132.5t-133 -320.5zM349 1241q0 37 26.5 63t63.5 26t63.5 -26t26.5 -63q0 -38 -26.5 -64t-63.5 -26t-63.5 26t-26.5 64zM649 1241q0 37 26.5 63t63.5 26t63.5 -26t26.5 -63q0 -38 -26.5 -64t-63.5 -26t-63.5 26t-26.5 64z" />
<glyph unicode="&#xec;" d="M-4 1387h166l163 -187h-84zM170 0v982h90v-982h-90z" />
<glyph unicode="&#xed;" d="M105 1200l163 187h166l-245 -187h-84zM170 0v982h90v-982h-90z" />
<glyph unicode="&#xee;" d="M-70 1090l229 234h104l238 -234h-104l-186 143l-176 -143h-105zM171 0v982h90v-982h-90z" />
<glyph unicode="&#xef;" d="M-25 1241q0 37 26.5 63t63.5 26t63.5 -26t26.5 -63q0 -38 -26.5 -64t-63.5 -26t-63.5 26t-26.5 64zM170 0v982h90v-982h-90zM275 1241q0 37 26.5 63t63.5 26t63.5 -26t26.5 -63q0 -38 -26.5 -64t-63.5 -26t-63.5 26t-26.5 64z" />
<glyph unicode="&#xf0;" horiz-adv-x="1278" d="M90 521q0 228 161 389t388 161q33 0 65 -3l-54 60h-168v90h87l-104 115h128l115 -115h164v-90h-73l158 -157q37 -27 71 -61q160 -161 160 -389q0 -227 -160.5 -388t-388.5 -161q-227 0 -388 161t-161 388zM185 521q0 -188 133 -320.5t321 -132.5t321 132.5t133 320.5 t-133 321t-321 133t-321 -133t-133 -321z" />
<glyph unicode="&#xf1;" horiz-adv-x="1071" d="M150 0v982h90v-63q123 122 286 122q174 0 283 -109t112 -275v-657h-90v649q0 125 -90.5 213.5t-214.5 88.5t-214 -87q-49 -49 -72 -101v-763h-90zM273 1142q22 129 100 152q21 6 42 6q57 0 115 -45q75 -60 124 -60h5q50 3 70 84h69q-21 -129 -99 -152q-21 -6 -42 -6 q-57 0 -115 46q-75 59 -124 59h-5q-50 -3 -70 -84h-70z" />
<glyph unicode="&#xf2;" horiz-adv-x="1278" d="M90 521q0 228 161 389t388 161q228 0 388.5 -161t160.5 -389q0 -227 -160.5 -388t-388.5 -161q-227 0 -388 161t-161 388zM185 521q0 -188 133 -320.5t321 -132.5t321 132.5t133 320.5t-133 321t-321 133t-321 -133t-133 -321zM420 1387h166l163 -187h-84z" />
<glyph unicode="&#xf3;" horiz-adv-x="1278" d="M90 521q0 228 161 389t388 161q228 0 388.5 -161t160.5 -389q0 -227 -160.5 -388t-388.5 -161q-227 0 -388 161t-161 388zM185 521q0 -188 133 -320.5t321 -132.5t321 132.5t133 320.5t-133 321t-321 133t-321 -133t-133 -321zM529 1200l163 187h166l-245 -187h-84z" />
<glyph unicode="&#xf4;" horiz-adv-x="1278" d="M90 521q0 228 161 389t388 161q228 0 388.5 -161t160.5 -389q0 -227 -160.5 -388t-388.5 -161q-227 0 -388 161t-161 388zM185 521q0 -188 133 -320.5t321 -132.5t321 132.5t133 320.5t-133 321t-321 133t-321 -133t-133 -321zM354 1090l229 234h104l238 -234h-104 l-186 143l-176 -143h-105z" />
<glyph unicode="&#xf5;" horiz-adv-x="1278" d="M90 521q0 228 161 389t388 161q228 0 388.5 -161t160.5 -389q0 -227 -160.5 -388t-388.5 -161q-227 0 -388 161t-161 388zM185 521q0 -188 133 -320.5t321 -132.5t321 132.5t133 320.5t-133 321t-321 133t-321 -133t-133 -321zM377 1142q22 129 100 152q21 6 42 6 q57 0 115 -45q75 -60 124 -60h5q50 3 70 84h69q-21 -129 -99 -152q-21 -6 -42 -6q-57 0 -115 46q-75 59 -124 59h-5q-50 -3 -70 -84h-70z" />
<glyph unicode="&#xf6;" horiz-adv-x="1278" d="M90 521q0 228 161 389t388 161q228 0 388.5 -161t160.5 -389q0 -227 -160.5 -388t-388.5 -161q-227 0 -388 161t-161 388zM185 521q0 -188 133 -320.5t321 -132.5t321 132.5t133 320.5t-133 321t-321 133t-321 -133t-133 -321zM399 1241q0 37 26.5 63t63.5 26t63.5 -26 t26.5 -63q0 -38 -26.5 -64t-63.5 -26t-63.5 26t-26.5 64zM699 1241q0 37 26.5 63t63.5 26t63.5 -26t26.5 -63q0 -38 -26.5 -64t-63.5 -26t-63.5 26t-26.5 64z" />
<glyph unicode="&#xf7;" horiz-adv-x="1050" d="M125 569v90h800v-90h-800zM435 414q0 37 26.5 63t63.5 26t63.5 -26t26.5 -63q0 -38 -26.5 -64t-63.5 -26t-63.5 26t-26.5 64zM435 814q0 37 26.5 63t63.5 26t63.5 -26t26.5 -63q0 -38 -26.5 -64t-63.5 -26t-63.5 26t-26.5 64z" />
<glyph unicode="&#xf8;" horiz-adv-x="1278" d="M90 522q0 228 161 389t388 161q129 0 237 -52l122 212l79 -41l-125 -216q40 -28 76 -64q160 -161 160 -389q0 -227 -160.5 -388t-388.5 -161q-129 0 -236 52l-123 -213l-79 38l126 220q-40 28 -76 64q-161 161 -161 388zM185 522q0 -188 133 -320q27 -28 57 -49l452 784 q-86 39 -188 39q-188 0 -321 -133t-133 -321zM451 108q86 -39 188 -39q188 0 321 132.5t133 320.5t-133 321q-27 27 -56 48z" />
<glyph unicode="&#xf9;" horiz-adv-x="1099" d="M150 370v612h90v-604q0 -125 91 -213q90 -89 223 -89q124 0 214.5 88.5t90.5 213.5v604h90v-612q-3 -166 -112 -275t-282 -109q-184 0 -293 109t-112 275zM330 1387h166l163 -187h-84z" />
<glyph unicode="&#xfa;" horiz-adv-x="1099" d="M150 370v612h90v-604q0 -125 91 -213q90 -89 223 -89q124 0 214.5 88.5t90.5 213.5v604h90v-612q-3 -166 -112 -275t-282 -109q-184 0 -293 109t-112 275zM440 1200l163 187h166l-245 -187h-84z" />
<glyph unicode="&#xfb;" horiz-adv-x="1099" d="M150 370v612h90v-604q0 -125 91 -213q90 -89 223 -89q124 0 214.5 88.5t90.5 213.5v604h90v-612q-3 -166 -112 -275t-282 -109q-184 0 -293 109t-112 275zM264 1090l229 234h104l238 -234h-104l-186 143l-176 -143h-105z" />
<glyph unicode="&#xfc;" horiz-adv-x="1099" d="M150 370v612h90v-604q0 -125 91 -213q90 -89 223 -89q124 0 214.5 88.5t90.5 213.5v604h90v-612q-3 -166 -112 -275t-282 -109q-184 0 -293 109t-112 275zM310 1241q0 37 26.5 63t63.5 26t63.5 -26t26.5 -63q0 -38 -26.5 -64t-63.5 -26t-63.5 26t-26.5 64zM610 1241 q0 37 26.5 63t63.5 26t63.5 -26t26.5 -63q0 -38 -26.5 -64t-63.5 -26t-63.5 26t-26.5 64z" />
<glyph unicode="&#xfd;" horiz-adv-x="1005" d="M75 982h102l326 -704l326 704h101l-427 -895v1l-222 -463h-88l265 556zM393 1200l163 187h166l-245 -187h-84z" />
<glyph unicode="&#xfe;" horiz-adv-x="1334" d="M150 -375v1975h90v-756q25 34 57 66q161 160 388 160q228 0 388.5 -160.5t160.5 -388.5q0 -227 -160.5 -388t-388.5 -161q-227 0 -388 161q-32 32 -57 66v-574h-90zM240 427q26 -129 124 -227q133 -133 321 -133t321 133t133 321t-133 321t-321 133t-321 -133 q-98 -98 -124 -227v-188z" />
<glyph unicode="&#xff;" horiz-adv-x="1005" d="M75 982h102l326 -704l326 704h101l-427 -895v1l-222 -463h-88l265 556zM263 1241q0 37 26.5 63t63.5 26t63.5 -26t26.5 -63q0 -38 -26.5 -64t-63.5 -26t-63.5 26t-26.5 64zM563 1241q0 37 26.5 63t63.5 26t63.5 -26t26.5 -63q0 -38 -26.5 -64t-63.5 -26t-63.5 26 t-26.5 64z" />
<glyph unicode="&#x152;" horiz-adv-x="2295" d="M90 802q0 340 240.5 580.5t580.5 240.5q138 0 259 -23h1000v-90h-840q86 -52 162 -127q225 -226 239 -538h439v-90h-439q-16 -310 -239 -533q-79 -79 -168 -132h846v-90h-1000q-121 -19 -259 -19q-340 0 -580.5 240.5t-240.5 580.5zM182 802q0 -302 213.5 -516 t515.5 -214q139 0 259 45q46 18 90 42q89 49 167 127q196 197 212 469q1 23 1 47q0 22 -1 43q-14 274 -212 473q-78 77 -167 126q-44 24 -90 42q-120 45 -259 45q-302 0 -515.5 -213.5t-213.5 -515.5z" />
<glyph unicode="&#x153;" horiz-adv-x="2127" d="M90 521q0 228 161 389t388 161q228 0 389 -161q22 -23 42 -47q19 24 42 47q161 161 388 161q228 0 389 -161q142 -143 148 -338l-851 1q2 -26 2 -52q0 -142 -63 -258q24 -32 54 -62q133 -133 321 -133t321 133q23 23 43 48l96 -34q-17 -28 -71 -82q-161 -161 -389 -161 q-227 0 -388 161q-23 23 -42 47q-20 -24 -42 -47q-161 -161 -389 -161q-227 0 -388 161t-161 388zM185 521q0 -188 133 -320.5t321 -132.5t321 132.5t133 320.5t-133 321t-321 133t-321 -133t-133 -321zM1126 779q29 -55 45 -116h758q-32 103 -108 179q-133 133 -321 133 t-321 -133q-30 -30 -53 -63z" />
<glyph unicode="&#x178;" horiz-adv-x="1291" d="M50 1600h103l492 -853l493 853h103l-551 -953v-647h-90v647zM406 1859q0 37 26.5 63t63.5 26t63.5 -26t26.5 -63q0 -38 -26.5 -64t-63.5 -26t-63.5 26t-26.5 64zM706 1859q0 37 26.5 63t63.5 26t63.5 -26t26.5 -63q0 -38 -26.5 -64t-63.5 -26t-63.5 26t-26.5 64z" />
<glyph unicode="&#x2c6;" horiz-adv-x="811" d="M121 1090l229 234h104l238 -234h-104l-186 143l-176 -143h-105z" />
<glyph unicode="&#x2dc;" horiz-adv-x="825" d="M150 1142q22 129 100 152q21 6 42 6q57 0 115 -45q75 -60 124 -60h5q50 3 70 84h69q-21 -129 -99 -152q-21 -6 -42 -6q-57 0 -115 46q-75 59 -124 59h-5q-50 -3 -70 -84h-70z" />
<glyph unicode="&#x2000;" horiz-adv-x="1002" />
<glyph unicode="&#x2001;" horiz-adv-x="2005" />
<glyph unicode="&#x2002;" horiz-adv-x="1002" />
<glyph unicode="&#x2003;" horiz-adv-x="2005" />
<glyph unicode="&#x2004;" horiz-adv-x="668" />
<glyph unicode="&#x2005;" horiz-adv-x="501" />
<glyph unicode="&#x2006;" horiz-adv-x="334" />
<glyph unicode="&#x2007;" horiz-adv-x="334" />
<glyph unicode="&#x2008;" horiz-adv-x="250" />
<glyph unicode="&#x2009;" horiz-adv-x="401" />
<glyph unicode="&#x200a;" horiz-adv-x="111" />
<glyph unicode="&#x2010;" horiz-adv-x="840" d="M125 547v90h590v-90h-590z" />
<glyph unicode="&#x2011;" horiz-adv-x="840" d="M125 547v90h590v-90h-590z" />
<glyph unicode="&#x2012;" horiz-adv-x="840" d="M125 547v90h590v-90h-590z" />
<glyph unicode="&#x2013;" horiz-adv-x="871" d="M50 547v90h771v-90h-771z" />
<glyph unicode="&#x2014;" horiz-adv-x="1507" d="M50 547v90h1407v-90h-1407z" />
<glyph unicode="&#x2018;" horiz-adv-x="280" d="M50 1374q0 21 7 39l98 198h65l-57 -150q23 -5 41 -23q26 -26 26 -64q0 -37 -26.5 -63t-63.5 -26t-63.5 26t-26.5 63z" />
<glyph unicode="&#x2019;" horiz-adv-x="280" d="M50 1522q0 37 26.5 63t63.5 26t63.5 -26t26.5 -63q0 -21 -7 -39l-98 -198h-65l57 150q-23 5 -40 23q-27 26 -27 64z" />
<glyph unicode="&#x201a;" horiz-adv-x="280" d="M50 74q0 37 26.5 63t63.5 26t63.5 -26t26.5 -63q0 -21 -7 -39l-98 -198h-65l57 150q-23 5 -40 23q-27 26 -27 64z" />
<glyph unicode="&#x201c;" horiz-adv-x="532" d="M50 1374q0 21 7 39l98 198h65l-57 -150q23 -5 41 -23q26 -26 26 -64q0 -37 -26.5 -63t-63.5 -26t-63.5 26t-26.5 63zM302 1374q0 21 7 39l98 198h65l-57 -150q23 -5 41 -23q26 -26 26 -64q0 -37 -26.5 -63t-63.5 -26t-63.5 26t-26.5 63z" />
<glyph unicode="&#x201d;" horiz-adv-x="532" d="M50 1522q0 37 26.5 63t63.5 26t63.5 -26t26.5 -63q0 -21 -7 -39l-98 -198h-65l57 150q-23 5 -40 23q-27 26 -27 64zM302 1522q0 37 26.5 63t63.5 26t63.5 -26t26.5 -63q0 -21 -7 -39l-98 -198h-65l57 150q-23 5 -40 23q-27 26 -27 64z" />
<glyph unicode="&#x201e;" horiz-adv-x="532" d="M50 74q0 37 26.5 63t63.5 26t63.5 -26t26.5 -63q0 -21 -7 -39l-98 -198h-65l57 150q-23 5 -40 23q-27 26 -27 64zM302 74q0 37 26.5 63t63.5 26t63.5 -26t26.5 -63q0 -21 -7 -39l-98 -198h-65l57 150q-23 5 -40 23q-27 26 -27 64z" />
<glyph unicode="&#x2022;" horiz-adv-x="758" d="M226 743q0 64 45.5 108t108.5 44q61 0 106.5 -44t45.5 -108q0 -63 -45.5 -107t-106.5 -44q-63 0 -108.5 44t-45.5 107z" />
<glyph unicode="&#x2026;" horiz-adv-x="2148" d="M100 76q0 37 26.5 63t63.5 26t63.5 -26t26.5 -63q0 -38 -26.5 -64t-63.5 -26t-63.5 26t-26.5 64zM783 76q0 37 26.5 63t63.5 26t63.5 -26t26.5 -63q0 -38 -26.5 -64t-63.5 -26t-63.5 26t-26.5 64zM1466 76q0 37 26.5 63t63.5 26t63.5 -26t26.5 -63q0 -38 -26.5 -64 t-63.5 -26t-63.5 26t-26.5 64z" />
<glyph unicode="&#x202f;" horiz-adv-x="401" />
<glyph unicode="&#x2039;" horiz-adv-x="629" d="M100 462l429 460v-104l-331 -356l331 -356v-105z" />
<glyph unicode="&#x203a;" horiz-adv-x="629" d="M100 1v105l331 356l-331 356v104l429 -460z" />
<glyph unicode="&#x205f;" horiz-adv-x="501" />
<glyph unicode="&#x20ac;" horiz-adv-x="1450" d="M100 585l18 90h150v120h-126l18 90h108v166q0 227 161 388t388 161q228 0 388 -161l-67 -67q-133 132 -321 132t-321 -132.5t-133 -320.5v-166h657l-18 -90h-639v-120h615l-18 -90h-597v-64q0 -188 133 -320.5t321 -132.5t321 133q82 82 114 185h98q-34 -142 -145 -253 q-160 -161 -388 -161q-227 0 -388 161t-161 388v64h-168z" />
<glyph unicode="&#x2122;" horiz-adv-x="1251" d="M100 1556v52h453l267 -409l266 409h65l-9 -13v-643h-56v556l-266 -410l-267 410v-556h-56v604h-158v-604h-57v604h-182z" />
<glyph unicode="&#xe000;" horiz-adv-x="980" d="M0 0v980h980v-980h-980z" />
<glyph unicode="&#xfb01;" horiz-adv-x="953" d="M90 892v90h100v266q6 111 85 191q82 76 189 76q56 0 118 -21l-28 -80q-42 18 -81 18q-71 0 -134 -57q-56 -55 -59 -133v-260h503v-982h-90v892h-413v-892h-90v892h-100zM648 1241q0 37 26.5 63t63.5 26t63.5 -26t26.5 -63q0 -38 -26.5 -64t-63.5 -26t-63.5 26t-26.5 64z " />
<glyph unicode="&#xfb02;" horiz-adv-x="913" d="M90 892v90h100v266q6 111 85 191q82 76 239 76q146 0 249 -55v-1460h-90v1410q-70 22 -150 22q-121 0 -184 -57q-56 -55 -59 -133v-260h200v-90h-200v-892h-90v892h-100z" />
<glyph unicode="&#xfb03;" horiz-adv-x="1476" d="M90 892v90h100v266q6 111 85 191q82 76 189 76q56 0 118 -21l-28 -80q-42 18 -81 18q-71 0 -134 -57q-56 -55 -59 -133v-260h433v266q6 111 85 191q82 76 189 76q56 0 118 -21l-28 -80q-42 18 -81 18q-71 0 -134 -57q-56 -55 -59 -133v-260h503v-982h-90v892h-413v-892 h-90v892h-433v-892h-90v892h-100zM1171 1241q0 37 26.5 63t63.5 26t63.5 -26t26.5 -63q0 -38 -26.5 -64t-63.5 -26t-63.5 26t-26.5 64z" />
<glyph unicode="&#xfb04;" horiz-adv-x="1436" d="M90 892v90h100v266q6 111 85 191q82 76 189 76q56 0 118 -21l-28 -80q-42 18 -81 18q-71 0 -134 -57q-56 -55 -59 -133v-260h433v266q6 111 85 191q82 76 239 76q146 0 249 -55v-1460h-90v1410q-70 22 -150 22q-121 0 -184 -57q-56 -55 -59 -133v-260h200v-90h-200v-892 h-90v892h-433v-892h-90v892h-100z" />
</font>
</defs>
</svg>
