<?xml version="1.0" standalone="no"?>
<!DOCTYPE svg PUBLIC "-//W3C//DTD SVG 1.1//EN" "http://www.w3.org/Graphics/SVG/1.1/DTD/svg11.dtd" >
<svg xmlns="http://www.w3.org/2000/svg">
<metadata></metadata>
<defs>
<font id="kg_the_last_timeregular" horiz-adv-x="1576" >
<font-face units-per-em="2048" ascent="1638" descent="-410" />
<missing-glyph horiz-adv-x="588" />
<glyph horiz-adv-x="2048" />
<glyph horiz-adv-x="2048" />
<glyph unicode="&#xd;" horiz-adv-x="588" />
<glyph unicode=" "  horiz-adv-x="588" />
<glyph unicode="&#x09;" horiz-adv-x="588" />
<glyph unicode="&#xa0;" horiz-adv-x="588" />
<glyph unicode="!" horiz-adv-x="622" d="M60 1464l506 4q-4 -22 -12 -51t-18 -77t-19 -119t-13 -175t1 -247t21 -333l-460 -22q20 102 34 235t15 273t-11 275t-44 237zM82 170q0 72 33 120t83 72t108 24t108 -24t83 -72t33 -120q0 -74 -33 -123t-83 -74t-108 -25t-108 25t-83 74t-33 123z" />
<glyph unicode="&#x22;" horiz-adv-x="1004" d="M48 930q98 32 120 108t-36 164l246 142q64 -86 83 -183t-7 -185t-98 -158t-190 -102zM496 946q98 32 120 108t-36 164l246 142q64 -86 83 -183t-7 -185t-98 -158t-190 -102z" />
<glyph unicode="#" horiz-adv-x="1666" d="M80 218l36 440q54 -10 110 -16t114 -12q2 46 2 93v95q-70 -10 -135 -19t-125 -23v476q28 -10 91 -17t153 -11q-6 64 -13 118t-17 98l464 48q-10 -64 -18 -134t-14 -142q46 0 93 1t93 3q-8 58 -15 114t-17 108l444 18q-2 -34 -4 -88t-4 -124q98 12 166 30l66 -462 q-58 6 -117 11t-123 9v-178q52 8 100 16t94 18l36 -442q-34 0 -90 1t-132 3l12 -234l-428 28q10 52 18 104t14 106h-100t-104 -2q6 -60 14 -117t18 -111l-470 18q10 24 17 74t13 120q-124 -6 -242 -18zM708 729q0 -57 2 -115q122 0 240 6q0 114 -6 226q-58 2 -118 1t-118 -3 v-115z" />
<glyph unicode="$" horiz-adv-x="1376" d="M42 472l394 80q-12 -60 -5 -108t27 -83t52 -59t70 -38q8 72 14 152t10 168q-88 22 -178 51t-163 76t-120 119t-49 180q-2 88 33 163t97 135t145 101t177 61l-18 102l426 -2q-18 -34 -34 -108q68 -18 132 -48t117 -77t89 -111t52 -148l-344 -134q-10 54 -32 90t-56 58 q-8 -150 -12 -314q82 -18 164 -42t149 -67t111 -115t50 -186q4 -76 -29 -140t-92 -114t-139 -86t-170 -56q6 -40 14 -72t18 -58l-462 -10q10 20 22 51t22 75q-102 16 -194 54t-159 101t-103 152t-26 207zM513 1031q-15 -59 51 -129q18 -22 42 -36q-2 62 -6 125t-8 127 q-64 -28 -79 -87zM866 500l4 -104t6 -102q58 42 64 98q4 36 -16 62t-58 46z" />
<glyph unicode="%" horiz-adv-x="1324" d="M42 148q8 -2 72 83t175 253t264 421t337 587l386 -264q-46 -50 -118 -150t-154 -226t-167 -267t-158 -273t-125 -244t-70 -182zM54 1270q0 72 33 120t83 72t108 24t108 -24t83 -72t33 -120q0 -74 -33 -123t-83 -74t-108 -25t-108 25t-83 74t-33 123zM836 198q0 72 33 120 t83 72t108 24t108 -24t83 -72t33 -120q0 -74 -33 -123t-83 -74t-108 -25t-108 25t-83 74t-33 123z" />
<glyph unicode="&#x26;" horiz-adv-x="1304" d="M51 493q31 137 159 257q-60 66 -97 134t-41 150q-6 98 29 189t105 159t172 104t232 22q100 -10 174 -56t118 -114t54 -150t-16 -165t-90 -159t-170 -130q46 -46 97 -96t103 -102q22 62 22 122l328 -8q-2 -102 -26 -194t-68 -172q36 -36 71 -69t65 -63l-268 -188 q-16 22 -42 46t-42 44q-84 -52 -183 -78t-213 -22q-172 8 -290 88t-166 197t-17 254zM377 409q7 -67 47 -107q22 -22 58 -34t75 -12t77 11t64 35q-68 66 -139 132t-131 118q-58 -76 -51 -143zM434 1130q-12 -46 1 -101t55 -99v-2q80 38 119 88t45 95t-17 79t-65 38 q-56 6 -91 -23t-47 -75z" />
<glyph unicode="'" horiz-adv-x="528" d="M48 930q98 32 120 108t-36 164l246 142q64 -86 83 -183t-7 -185t-98 -158t-190 -102z" />
<glyph unicode="(" horiz-adv-x="788" d="M27 680q1 154 45 303t130 269t216 200t302 96l22 -318q-86 -14 -149 -65t-105 -125t-62 -164t-19 -184t22 -183t62 -161t101 -119t140 -57l-20 -356q-172 16 -301 95t-214 199t-128 268t-42 302z" />
<glyph unicode=")" horiz-adv-x="784" d="M32 1230l22 318q172 -16 302 -96t216 -200t130 -269t45 -303t-42 -302t-128 -268t-214 -199t-301 -95l-20 356q80 10 140 57t101 119t62 161t22 183t-19 184t-62 164t-105 125t-149 65z" />
<glyph unicode="*" horiz-adv-x="1298" d="M54 584l24 408q8 -4 55 -21t101 -37t102 -37t62 -19q-10 6 -55 30t-96 52t-96 52t-57 32l296 306q6 -8 18 -33t28 -58t33 -69t32 -68t27 -55t16 -29q-2 10 -17 57t-32 101t-32 102t-17 60l426 8q-2 -14 -19 -62t-36 -103t-35 -102t-18 -55q8 10 32 57t51 102t51 102 t30 57l296 -312q-10 -8 -55 -32t-96 -51t-95 -49t-52 -28q6 0 29 9t55 21t68 26t68 27t56 21l30 10l18 -442q-14 2 -64 17t-106 32t-103 32t-57 15q8 -6 53 -27t98 -46t100 -47t59 -30l-294 -316q-4 8 -29 54t-55 102t-58 105t-40 61q4 -12 21 -61t37 -106t37 -107t21 -64 l-430 -16q2 10 18 62t34 115t34 120t18 77q-6 -8 -20 -31t-32 -55t-38 -68t-38 -68t-32 -58t-20 -36l-270 306q8 4 52 25t97 47t100 49t59 31q-14 -2 -64 -16t-107 -30t-108 -30t-69 -16z" />
<glyph unicode="+" horiz-adv-x="1252" d="M76 486v476q46 -16 150 -28t236 -16q0 108 -9 206t-25 180l468 8q-16 -108 -29 -205t-23 -187q98 4 188 16t164 32l26 -468q-110 12 -207 22t-189 16q4 -88 14 -179t28 -193l-476 18q16 44 31 139t25 217q-170 -12 -372 -54z" />
<glyph unicode="," horiz-adv-x="484" d="M32 -72q98 32 120 108t-36 164l246 142q64 -86 83 -183t-7 -185t-98 -158t-190 -102z" />
<glyph unicode="-" horiz-adv-x="1262" d="M70 486v452q36 -12 106 -21t162 -16t198 -9t212 3t206 16t180 33l24 -444q-156 16 -289 28t-261 14t-258 -11t-280 -45z" />
<glyph unicode="." horiz-adv-x="534" d="M44 180q0 72 33 120t83 72t108 24t108 -24t83 -72t33 -120q0 -74 -33 -123t-83 -74t-108 -25t-108 25t-83 74t-33 123z" />
<glyph unicode="/" horiz-adv-x="1256" d="M10 148q8 -2 72 83t175 253t264 421t337 587l386 -264q-46 -50 -118 -150t-154 -226t-167 -267t-158 -273t-125 -244t-70 -182z" />
<glyph unicode="0" horiz-adv-x="1470" d="M23 704q-3 136 36 268t122 240t210 181t299 89q182 18 319 -39t228 -163t138 -246t49 -288t-42 -291t-133 -253t-224 -176t-315 -58q-166 6 -293 71t-213 167t-132 232t-49 266zM438 733q0 -107 33 -200t96 -156t155 -67q76 -4 133 32t93 98t54 141t17 162t-19 162 t-54 140t-87 95t-119 28q-102 -10 -169 -76t-100 -159t-33 -200z" />
<glyph unicode="1" horiz-adv-x="610" d="M64 -42q6 2 15 88t14 264t3 453t-16 657l454 28q-14 -68 -23 -181t-13 -250t-2 -286t10 -286t21 -252t35 -183z" />
<glyph unicode="2" horiz-adv-x="1168" d="M22 1062q20 94 65 172t117 133t172 84t228 29q178 0 288 -68t157 -174t35 -238t-77 -261t-180 -243t-273 -184q50 2 126 20t156 40t150 43t108 31l42 -440q-144 0 -264 1t-244 -1t-263 -8t-321 -18l-8 394q76 10 168 55t181 111t166 147t122 161t48 153t-53 125 q-40 34 -89 32t-93 -29t-77 -71t-41 -92z" />
<glyph unicode="3" horiz-adv-x="1338" d="M22 514l400 40q4 -102 60 -159t126 -74t134 6t84 83q20 68 -6 108t-74 61t-108 29t-106 12v260q58 -14 106 -3t83 39t57 65t27 73t-7 67t-46 45q-38 16 -86 11t-98 -27t-98 -59t-86 -85l-340 140q74 112 171 185t202 113t212 49t203 -8t174 -57t124 -98q36 -46 53 -105 t11 -126t-35 -139t-87 -140q60 -28 108 -70t81 -98t45 -125t0 -151q-14 -98 -77 -174t-156 -126t-208 -75t-232 -22t-227 37t-196 99t-138 164t-50 235z" />
<glyph unicode="4" horiz-adv-x="1354" d="M40 1464l452 -12q-8 -42 -15 -102t-12 -134t-8 -157t-3 -171q66 -10 113 -15t89 -6t89 3t113 14q8 68 10 143t-1 153t-12 154t-23 144l472 -14q-10 -56 -18 -165t-13 -246t-5 -291t4 -298t15 -268t29 -202l-498 -16q2 14 3 66t2 128t3 171t8 195q-44 8 -134 14t-199 7 t-224 -2t-209 -11q12 126 18 239t4 223t-14 222t-36 234z" />
<glyph unicode="5" horiz-adv-x="1304" d="M50 518l422 40q-20 -98 0 -162t62 -96t97 -37t105 12t86 54t40 87q8 94 -41 161t-151 99t-253 26t-345 -56q2 56 5 129t5 154t2 164t-2 160t-8 141t-16 108q46 -12 138 -19t205 -9t236 0t233 6t194 11t122 17l-6 -450q-110 58 -242 84t-251 30t-206 -7t-105 -25 q0 -24 -1 -41t-2 -33t-3 -34t-6 -42q104 16 213 16t211 -21t192 -63t157 -112t104 -169t33 -231q-2 -98 -49 -189t-129 -162t-195 -115t-245 -46q-130 -2 -246 35t-200 113t-128 194t-32 278z" />
<glyph unicode="6" horiz-adv-x="1484" d="M28 748q8 160 67 295t156 234t226 157t277 67t309 -39t323 -160l-214 -258q-132 94 -261 113t-234 -20t-177 -127t-92 -210q132 90 262 123t248 23t217 -57t171 -116t112 -156t38 -177q-2 -120 -56 -221t-151 -174t-233 -111t-302 -30q-192 8 -326 80t-217 186t-117 263 t-26 315zM460 426q22 -78 80 -127t131 -71t152 -18t145 29t109 71t43 108q0 64 -35 109t-92 70t-128 29t-145 -16t-142 -65t-118 -119z" />
<glyph unicode="7" horiz-adv-x="1194" d="M38 1472q122 -18 259 -25t281 -5t291 10t289 18q-22 -58 -54 -160t-70 -231t-80 -276t-80 -296t-71 -293t-55 -264l-422 84q54 134 104 273t94 274t81 263t63 240q-42 14 -118 22t-163 5t-178 -15t-163 -36z" />
<glyph unicode="8" horiz-adv-x="1184" d="M26 348q2 130 52 220t156 150q-100 88 -142 184t-35 185t57 168t134 134t196 80t244 11q68 -8 134 -42t117 -88t81 -123t27 -147t-46 -160t-137 -160q64 -28 122 -64t100 -87t62 -120t10 -163q-12 -114 -63 -195t-128 -133t-172 -75t-195 -19q-108 2 -213 33t-186 88 t-129 139t-46 184zM418 456q-20 -68 2 -116t69 -74t83 -24q84 2 122 49t32 108t-54 120t-136 87q-98 -82 -118 -150zM425 1040q7 -38 34 -75t81 -61q50 24 85 71t47 96t-2 90t-64 55q-42 12 -77 0t-61 -38t-38 -63t-5 -75z" />
<glyph unicode="9" horiz-adv-x="1550" d="M30 862q2 110 39 216t110 190t183 140t258 66q114 8 229 -24t217 -114q-6 24 -11 60t-11 58l480 14q-18 -70 -29 -187t-15 -260t-2 -297t9 -296t16 -259t21 -183l-452 8q0 6 3 39t7 79t9 98t9 98t7 79t3 39q-112 -94 -236 -131t-244 -29t-229 56t-192 127t-132 185 t-47 228zM434 844q10 -86 59 -138t115 -75t142 -18t138 37t103 88t39 134q-4 90 -52 147t-117 83t-148 20t-145 -39t-105 -93t-29 -146z" />
<glyph unicode=":" horiz-adv-x="546" d="M38 396q0 72 33 120t83 72t108 24t108 -24t83 -72t33 -120q0 -74 -33 -123t-83 -74t-108 -25t-108 25t-83 74t-33 123zM44 1028q0 72 33 120t83 72t108 24t108 -24t83 -72t33 -120q0 -74 -33 -123t-83 -74t-108 -25t-108 25t-83 74t-33 123z" />
<glyph unicode=";" horiz-adv-x="512" d="M30 -80q96 30 116 103t-36 157l238 136q60 -82 79 -175t-6 -178t-94 -152t-183 -97zM34 594q0 72 33 120t83 72t108 24t108 -24t83 -72t33 -120q0 -74 -33 -123t-83 -74t-108 -25t-108 25t-83 74t-33 123z" />
<glyph unicode="&#x3c;" horiz-adv-x="1106" d="M96 412l4 526q82 24 164 58t172 80t192 106t222 136l196 -424q-76 -16 -167 -50t-172 -71t-139 -67t-68 -36q122 -38 196 -60t127 -34t100 -18t115 -8l-88 -458q-128 72 -247 124t-228 90t-204 63t-175 43z" />
<glyph unicode="=" horiz-adv-x="1296" d="M80 208l36 440q164 -26 297 -39t256 -13t246 15t267 45l36 -442q-66 0 -164 8t-235 12t-320 1t-419 -27zM82 766v476q38 -12 109 -22t163 -18t199 -11t214 1t209 16t186 34l66 -462q-166 18 -306 31t-273 14t-271 -12t-296 -47z" />
<glyph unicode="&#x3e;" horiz-adv-x="1140" d="M96 894l196 424q120 -76 222 -136t192 -106t172 -80t164 -58l4 -526q-80 -18 -175 -43t-204 -63t-228 -90t-247 -124l-88 458q68 2 115 8t100 18t126 34t197 60q-10 6 -68 36t-139 67t-172 71t-167 50z" />
<glyph unicode="?" horiz-adv-x="1190" d="M34 1182q50 128 147 212t216 124t246 35t235 -55t183 -147t91 -239q14 -128 -29 -234t-123 -178t-187 -104t-221 -14l18 -172l-350 4l32 422q60 -22 138 -27t148 14t118 66t48 131q0 60 -47 109t-143 63q-28 4 -61 0t-63 -17t-55 -38t-37 -63zM196 164q0 72 33 120t83 72 t108 24t108 -24t83 -72t33 -120q0 -74 -33 -123t-83 -74t-108 -25t-108 25t-83 74t-33 123z" />
<glyph unicode="@" horiz-adv-x="1796" d="M52 678q-12 150 28 297t139 265t256 195t379 89q216 10 381 -47t280 -157t179 -230t76 -262q14 -138 -24 -249t-106 -187t-155 -113t-172 -30t-157 62t-108 167q-16 -12 -37 -27t-43 -27t-46 -19t-48 -7q-108 0 -178 51t-106 126t-36 163t36 163t106 126t174 53 q46 0 81 -10t60 -25t38 -30t15 -21l2 46l214 -14q-6 -24 -8 -72t-1 -105t6 -116t15 -106t26 -77t40 -26q32 4 54 32t33 69t12 87t-7 86q-16 74 -63 151t-118 137t-164 95t-201 29q-120 -8 -207 -57t-143 -122t-81 -164t-19 -183q4 -56 27 -117t65 -117t101 -103t132 -73 t160 -27t187 33v-356q-158 -44 -297 -33t-255 62t-209 134t-160 182t-106 205t-47 204zM793 750q-1 -42 21 -77t68 -37q42 -2 65 33t24 77t-20 78t-65 36q-46 0 -69 -34t-24 -76z" />
<glyph unicode="A" horiz-adv-x="1750" d="M24 16q108 254 201 486t167 424t130 335t90 221l474 -4q24 -96 68 -218t121 -291t189 -395t270 -528l-420 -94q-18 34 -61 131t-99 229q-122 10 -254 10h-45q-157 -2 -301 -18q-36 -120 -59 -214t-29 -140zM672 660q74 -10 160 -12q17 0 35 -1q71 0 149 7 q-50 126 -94 240t-74 200q-44 -90 -89 -202t-87 -232z" />
<glyph unicode="B" horiz-adv-x="1482" d="M54 1334q50 22 134 50t188 54t220 45t230 23q25 1 50 1q87 0 169 -11q105 -14 186 -55t132 -113t57 -182v-20q0 -69 -24 -135q-28 -75 -72 -136t-97 -103t-101 -56q104 -20 168 -66t97 -102t39 -115q2 -20 2 -38q0 -37 -8 -69q-36 -150 -156 -231t-299 -109 q-125 -20 -274 -20q-64 0 -131 4q-226 12 -474 48q12 58 19 151t9 208q1 46 1 94q0 73 -2 151q-3 130 -11 259t-21 251t-31 222zM442 866q18 -4 74 -9q47 -4 105 -4h24q73 1 153 12t147 38t112 72q49 49 49 121q0 46 -50 75q-52 31 -143 37q-20 1 -40 1q-77 0 -172 -17 q-121 -22 -259 -78v-248zM450 351q0 -43 2 -85q30 -10 83 -18t115 -9q9 0 18 -1q53 0 108 6q64 6 116 24t85 49t33 77q0 54 -44 88t-121 49q-61 12 -137 12q-20 0 -42 -1q-102 -4 -216 -24v-28v-60v-79z" />
<glyph unicode="C" horiz-adv-x="1414" d="M22 701v11q0 133 45 262q47 134 142 240t238 170t335 66q128 0 228 -29t172 -84t117 -133t65 -172l-346 -96q-6 44 -26 83t-57 66t-90 37q-24 5 -52 5q-33 0 -71 -7q-106 -20 -173 -84t-98 -150q-27 -76 -27 -161v-22q4 -97 42 -181t107 -145t167 -75q24 -3 47 -3 q91 0 154 51q79 64 113 184l342 -118q-28 -94 -73 -174t-116 -140t-169 -95t-232 -37h-23q-180 0 -318 58q-147 62 -245 165t-147 236t-51 272z" />
<glyph unicode="D" horiz-adv-x="1284" d="M46 -20q6 2 13 91t10 272q1 78 1 174q0 128 -2 288q-4 279 -18 661q174 30 321 30q117 0 218 -19q227 -43 374 -151t216 -264q67 -152 67 -316v-10q0 -92 -27 -190t-84 -190t-149 -172t-225 -133t-310 -74q-83 -10 -176 -10q-107 0 -229 13zM409 744q1 -116 8 -229 t19 -219q100 2 181 41t140 100t93 135t40 146q1 16 1 32q0 79 -25 153q-30 89 -91 156t-148 105q-75 33 -164 33q-14 0 -29 -1q-14 -108 -20 -222q-5 -98 -5 -197v-33z" />
<glyph unicode="E" horiz-adv-x="1242" d="M6 -36q8 38 25 156t29 310t14 457v54q0 245 -16 543q134 -24 282 -39t298 -19q46 -1 92 -1q103 0 205 6q147 9 281 33l10 -364q-140 20 -262 26q-81 4 -152 4q-35 0 -68 -1q-98 -3 -171 -12t-115 -19q-6 -46 -11 -105t-9 -125q37 -2 73 -1q103 0 202 12q135 17 267 39 l-18 -404q-186 48 -312 58q-57 5 -108 5q-61 0 -112 -7q0 -60 2 -116t6 -104q54 -24 153 -30q54 -3 112 -3q48 0 99 2q112 5 220 19t178 32l16 -418q-122 18 -273 26t-312 8t-322 -6t-303 -16z" />
<glyph unicode="F" horiz-adv-x="1248" d="M6 -36q12 44 35 175t36 330q8 129 8 283q0 83 -2 172q-7 256 -53 548q134 -24 286 -33q124 -7 251 -7h56q155 2 306 17t285 39l12 -388q-140 20 -262 26q-81 4 -152 4q-35 0 -68 -1q-98 -3 -171 -12t-115 -19q-6 -46 -11 -105t-9 -125q37 -2 73 -1q103 0 202 12 q135 17 267 39l-18 -404q-186 48 -312 58q-57 5 -108 5q-61 0 -112 -7q-4 -26 -4 -78t3 -115t10 -130t16 -123t19 -94t20 -42z" />
<glyph unicode="G" horiz-adv-x="1488" d="M37 694v6q0 145 46 283q47 141 142 251t236 178t329 70q128 0 240 -34t196 -101t138 -165t70 -226l-374 -54q-6 44 -23 92t-48 88t-78 66t-111 26q-110 0 -184 -62t-113 -156t-41 -207v-14q0 -105 29 -200q31 -101 96 -178t163 -99q29 -6 67 -6h20q51 2 98 23t81 64 t38 117q-4 2 -38 5t-82 6q-36 2 -75 2h-26q-53 -1 -95 -9l4 362q24 -6 94 -20t167 -22q65 -5 137 -5q36 0 74 1q114 4 228 32q2 -50 2 -97q0 -200 -41 -341q-51 -174 -141 -277t-210 -145t-246 -42q-192 2 -336 70t-240 178t-144 251t-49 289z" />
<glyph unicode="H" horiz-adv-x="1552" d="M66 -12q8 16 19 119t17 288q4 111 4 250q0 93 -2 199q-4 264 -24 604l452 -12q-8 -42 -15 -102t-12 -134t-8 -157t-3 -171q134 -18 280 -18t280 22q1 50 1 103q0 78 -2 161q-3 138 -9 294l460 46q-10 -56 -18 -167t-13 -251t-7 -296q-1 -45 -1 -88q0 -110 4 -215 q5 -147 15 -273t28 -204l-510 20q6 28 19 146t23 318q-90 18 -221 25q-40 2 -85 2q-104 0 -236 -11q8 -150 23 -276t37 -200z" />
<glyph unicode="I" horiz-adv-x="1354" d="M28 -8l16 422q70 -22 174 -36t224 -18q8 120 11 306q1 62 1 133q0 143 -4 323q-114 -8 -211 -19t-167 -25l2 426q38 -12 121 -21t193 -15t237 -7h36q109 0 216 5q125 6 239 19t198 35l-8 -432q-76 22 -189 33t-245 13q-6 -88 -9 -184t-3 -195t4 -196t12 -183 q130 12 241 35t185 55l24 -468q-66 0 -189 8t-290 12q-95 2 -204 2q-82 0 -171 -1q-208 -3 -444 -27z" />
<glyph unicode="J" horiz-adv-x="1244" d="M42 580l386 62q0 -108 36 -170t85 -78q18 -6 36 -6q33 0 67 18q54 28 92 104q24 50 35 157q8 78 8 172q0 34 -1 70q-4 135 -23 281t-51 272l434 26q10 -64 25 -158t26 -206t14 -236q1 -25 1 -49q0 -99 -10 -196q-12 -121 -43 -233t-89 -204t-146 -155t-216 -85 q-26 -4 -79 -5h-6q-51 0 -114 15q-67 16 -140 52t-138 106t-116 178t-73 268z" />
<glyph unicode="K" horiz-adv-x="1414" d="M56 -42q18 46 34 164t22 309q3 88 3 191q0 120 -4 261q-7 261 -35 593l458 14q-6 -34 -7 -70t-1 -79t1 -96v-37q0 -40 -1 -88q44 18 110 60t140 97t147 118t131 125l320 -306q-62 -66 -150 -132t-185 -129t-196 -121t-185 -108q90 -54 189 -120t193 -128t178 -115 t142 -83l-356 -336q-42 48 -109 110t-138 123t-136 110t-103 69q2 -48 3 -109t1 -121t2 -110t8 -76z" />
<glyph unicode="L" horiz-adv-x="1104" d="M24 1454l464 28q-18 -94 -30 -221t-17 -273t-5 -302t6 -308q42 -16 117 -25t163 -11h29q74 0 149 8q90 10 162 34l16 -418q-122 18 -243 25t-246 7t-256 -7t-273 -17q8 34 14 130t8 228q1 88 1 186v101q-1 155 -8 308t-20 291t-31 236z" />
<glyph unicode="M" horiz-adv-x="2218" d="M26 -10q68 300 110 529t69 403t44 303t35 229l532 10q-2 -2 12 -41t37 -101t55 -143t65 -168t65 -173t58 -160q20 54 40 125t40 149t39 158t35 149t28 122t20 81h532q14 -46 30 -130t36 -197t46 -249t60 -283t78 -300t100 -301l-484 -80l-13 91t-20 148t-26 185t-31 201 t-35 196t-39 171q-26 -64 -59 -170t-66 -220t-65 -221t-54 -173l-390 -28q-20 66 -49 152t-63 176t-68 179t-64 163t-51 126t-27 70q-14 -80 -26 -174t-24 -192t-21 -194t-16 -182t-9 -156q-1 -35 -1 -64t1 -52z" />
<glyph unicode="N" horiz-adv-x="1502" d="M26 -26q42 360 53 628q9 227 9 390v57q-2 179 -11 273q-6 65 -6 92q0 12 1 16l548 64q18 -40 46 -108t73 -163t113 -217t164 -266v79q0 121 -4 260q-6 185 -22 403l492 -10q-16 -68 -29 -168t-23 -222t-16 -258q-4 -97 -3 -196q0 -40 1 -80q2 -140 12 -278t30 -262 l-460 -4q-34 56 -82 150t-112 212t-143 255t-175 279q-22 -148 -28 -296q-3 -81 -3 -156q0 -63 2 -121q5 -129 18 -232t29 -159z" />
<glyph unicode="O" horiz-adv-x="1474" d="M29 716q-1 16 -1 33q0 121 33 239q37 134 119 241t209 176t301 77q26 1 51 1q151 0 270 -51q139 -60 233 -165t144 -242t53 -281v-19q0 -134 -40 -263q-43 -138 -132 -247t-225 -174q-132 -63 -309 -63h-11q-166 2 -294 65t-215 167t-134 236t-52 270zM438 735 q0 -111 33 -205t96 -157t155 -63q110 0 180 64t102 160q30 90 30 195v13q-2 112 -37 207t-100 158q-63 61 -151 61h-6q-102 -2 -170 -67t-100 -160t-32 -206z" />
<glyph unicode="P" horiz-adv-x="1556" d="M26 1436l462 32q-6 -28 -6 -70q0 -20 1 -37t1 -27q94 74 200 112t212 38q162 0 280 -57t195 -149t114 -206t37 -228q0 -120 -53 -233t-143 -200t-211 -139t-257 -52q-102 0 -208 35t-210 111q0 -6 2 -36t4 -71t5 -88t5 -88t4 -71t2 -36l-424 4q8 52 16 132t13 179t8 210 t3 225q0 108 -3 214t-9 199t-16 170t-24 127zM530 810q0 -60 23 -104t61 -73t88 -43t104 -14q60 0 120 18t107 53t77 87t30 120t-22 118t-58 82t-84 48t-100 16q-60 0 -121 -21t-110 -60t-81 -96t-34 -131z" />
<glyph unicode="Q" horiz-adv-x="1500" d="M54 712q0 138 43 272t128 240t214 175t303 77q26 1 52 1q144 0 257 -48q133 -57 223 -156t137 -230t51 -269v-27q0 -124 -33 -247q-37 -136 -117 -244q68 -70 126 -120l-306 -208q-10 28 -23 60t-33 66q-74 -38 -162 -58q-80 -18 -172 -18h-18q-166 2 -291 65t-209 166 t-127 234t-43 269zM457 700v-21q0 -100 26 -187q29 -96 91 -160t154 -64q52 0 97 13t83 35q-52 66 -108 128t-112 112l276 228q52 -134 116 -236q27 89 27 186v19q-3 107 -39 196t-107 145q-66 52 -165 52h-14q-106 -4 -177 -71t-108 -165t-40 -210z" />
<glyph unicode="R" horiz-adv-x="1488" d="M-2 6q12 58 24 166t23 246t17 293t7 307v34q0 134 -7 255q-8 137 -26 237l434 -22q-6 -22 -6 -63t2 -63q86 66 182 102t193 44q29 2 57 3q67 0 132 -14q92 -19 170 -63q110 -64 174 -171t75 -227q2 -24 2 -48q0 -96 -35 -189q-44 -117 -150 -199q-60 -46 -132 -80 t-148 -54q102 -132 180 -258t124 -256l-430 -12q-38 90 -86 182t-104 177t-121 158t-137 123q0 -6 2 -54t5 -117t6 -149t6 -149t5 -117t2 -54zM520 1018q-1 -12 -1 -23q0 -57 33 -96q40 -47 103 -69q55 -19 120 -19h18q75 3 141 29t109 76t43 122q0 74 -41 118t-102 62 q-46 14 -97 14q-17 0 -35 -2q-71 -6 -134 -33t-107 -73t-50 -106z" />
<glyph unicode="S" horiz-adv-x="1376" d="M42 472l394 80q-8 -40 -9 -75q0 -50 18 -88q29 -65 83 -99t124 -42q24 -3 48 -3q44 0 84 10q62 15 107 51t49 86v10q0 41 -30 68q-34 30 -92 53t-133 41t-155 40t-157 52t-138 77t-100 114t-41 163v9q0 93 41 171q43 82 118 144t173 101t206 49q36 3 73 3q65 0 135 -9 q110 -14 207 -60t169 -129t94 -211l-344 -134q-10 66 -41 105t-73 59t-90 25q-34 4 -66 4q-12 0 -24 -1q-52 -4 -91 -24t-57 -51q-12 -21 -12 -48q0 -12 2 -25q8 -42 50 -86q46 -48 119 -73t157 -45t171 -43t158 -66t118 -116t53 -191v-13q0 -90 -51 -164q-55 -79 -148 -133 t-214 -83t-246 -30h-8q-121 0 -237 30q-120 31 -211 95t-142 164q-43 84 -43 194q0 21 2 44z" />
<glyph unicode="T" horiz-adv-x="1274" d="M32 1054l34 404q198 -28 363 -37q99 -5 189 -5q60 0 115 2q139 6 254 24t215 42l48 -414q-52 10 -113 12q-24 1 -49 1q-36 0 -72 -2q-60 -3 -112 -9t-84 -10q0 -118 4 -247t11 -251t14 -233t14 -194t13 -133t10 -50l-494 14q10 34 17 107t11 170t7 209t4 221t1 208v171 q0 -4 -35 -1t-93 6t-129 3t-143 -8z" />
<glyph unicode="U" d="M61 1090q9 162 39 310l444 -8q-28 -184 -30 -369v-25q0 -170 26 -308q28 -148 87 -241t149 -95h6q79 0 146 50q70 52 117 174t66 322q10 103 10 230q0 121 -9 264l412 12q14 -136 18 -293q1 -29 1 -57q0 -128 -15 -257q-18 -157 -64 -303t-134 -257t-224 -179t-332 -68 q-170 0 -295 63t-210 170t-133 249t-66 298q-12 104 -12 211q0 53 3 107z" />
<glyph unicode="V" horiz-adv-x="1648" d="M6 1374l420 94q6 -40 29 -107t57 -153t78 -183t91 -195t95 -191t90 -169q42 124 93 271t99 286t85 254t49 179l442 -66q-120 -286 -214 -524t-158 -416t-99 -290t-35 -144l-472 -20q-20 54 -50 115t-70 139t-92 180t-118 237t-145 308t-175 395z" />
<glyph unicode="W" horiz-adv-x="2322" d="M2 1346l484 80q8 -68 30 -176t54 -234t73 -259t89 -253q26 64 59 170t66 220t65 221t54 173l390 28q18 -44 39 -112t42 -147t41 -163t36 -160t27 -138t15 -96q48 120 92 258t79 269t60 243t33 180l466 -36q-88 -234 -154 -418t-114 -329t-81 -253t-56 -191t-38 -144 t-29 -111l-524 24q2 2 0 38t-8 94t-16 134t-26 159t-36 166t-46 157q-30 -80 -51 -188t-38 -214t-29 -194t-24 -128l-562 -44q1 1 1 6q0 17 -16 80q-21 82 -75 249t-146 424t-226 615z" />
<glyph unicode="X" horiz-adv-x="1640" d="M8 1190l350 310q42 -60 96 -135t111 -149t115 -138t112 -106q38 48 95 111t119 133t122 140t106 132l350 -310q-34 -28 -99 -80t-142 -118t-158 -139t-143 -145q96 -108 198 -197t186 -153t139 -99q52 -33 58 -33h1l-404 -316q-14 36 -62 98t-111 134t-129 146t-116 136 q-50 -62 -111 -141t-117 -157t-100 -144t-58 -102l-404 316q2 -4 51 34t126 106t173 161t192 201q-64 72 -145 149t-159 146t-144 125t-98 84z" />
<glyph unicode="Y" d="M16 1302l418 152q30 -66 73 -156t95 -180t109 -170t111 -124q40 42 84 123t86 175t79 188t65 162l430 -168q-106 -158 -181 -278t-135 -224t-113 -202t-115 -212q0 -46 -1 -101v-37q0 -37 1 -74q2 -56 7 -111t15 -101l-462 -36q6 30 8 78q1 32 1 70v40q-1 62 -2 137 t-1 157q-44 86 -97 172t-122 189t-156 231t-197 300z" />
<glyph unicode="Z" horiz-adv-x="1378" d="M26 1018l6 384q38 -10 114 -15t177 -6h41q84 0 181 3q121 4 250 14t261 25t254 37l12 -400q-58 -64 -139 -162t-179 -198t-210 -189t-230 -137q114 0 228 -1h56q83 0 160 2q102 3 186 11t140 26l-12 -462q-40 0 -136 17t-255 35t-382 29q-117 6 -252 6q-123 0 -261 -5 l32 418q80 52 174 107t193 125t198 164t187 226q-46 -18 -116 -30t-151 -19t-165 -8t-157 -1t-128 1t-77 3z" />
<glyph unicode="[" horiz-adv-x="832" d="M10 -114q6 44 20 183t26 354t16 494t-10 605q216 -40 403 -29t327 49l-4 -346q-42 6 -91 8t-96 1t-87 -5t-64 -12q-6 -50 -11 -126t-9 -163t-7 -180t-3 -179v-159t4 -119q30 -10 82 -17t108 -8t106 5t78 24l6 -396q-122 18 -208 27t-169 10t-179 -5t-238 -16z" />
<glyph unicode="\" horiz-adv-x="1258" d="M10 1228l386 264q184 -334 337 -587t264 -421t175 -253t72 -83l-442 -262q-18 70 -70 182t-125 244t-158 273t-167 267t-154 226t-118 150z" />
<glyph unicode="]" horiz-adv-x="848" d="M10 -130l6 396q28 -18 78 -24t106 -5t108 8t82 17q2 46 3 119t1 159t-3 179t-7 180t-9 163t-11 126q-24 8 -64 12t-87 5t-96 -1t-91 -8l-4 346q140 -38 327 -49t403 29q-14 -326 -10 -605t16 -494t26 -354t20 -183q-142 10 -238 16t-179 5t-169 -10t-208 -27z" />
<glyph unicode="^" horiz-adv-x="758" d="M46 788l232 332l200 -6l236 -322l-230 -46l-100 142l-104 -138z" />
<glyph unicode="_" horiz-adv-x="1256" d="M60 -98l10 428q38 -12 112 -22t171 -17t208 -9t223 3t217 17t189 34l16 -420q-166 18 -306 31t-273 14t-271 -12t-296 -47z" />
<glyph unicode="`" horiz-adv-x="492" d="M24 1800l240 104q38 -80 94 -154t134 -158l-260 -96q-38 80 -88 152t-120 152z" />
<glyph unicode="a" horiz-adv-x="1594" d="M56 724q6 136 57 267t146 233t232 164t315 62q50 0 102 -11t98 -28t81 -36t53 -33l-4 36l-4 36l428 8q-14 -68 -24 -180t-15 -246t-5 -279t6 -279t19 -247t35 -181l-496 -2q6 22 12 46l12 48q-72 -60 -157 -88q-79 -26 -180 -26h-15q-182 2 -316 67t-220 168t-126 234 q-35 114 -35 232q0 17 1 35zM480 747q-3 -31 -3 -61q0 -69 16 -133q23 -91 80 -156t149 -75q19 -2 36 -2q82 0 143 46q73 56 115 146t51 199q2 30 2 58q0 76 -17 145q-24 94 -82 158t-150 66q-102 0 -175 -57t-114 -144t-51 -190z" />
<glyph unicode="b" horiz-adv-x="1608" d="M32 -50q18 68 29 187t16 262q4 102 4 211q0 44 -1 88q-2 156 -8 298t-15 259t-21 185l452 -6q0 -10 -2 -52t-3 -92t-3 -93t-2 -51q18 14 53 33t81 36t97 28t103 11q178 0 315 -54t230 -142t143 -201t55 -231q1 -13 1 -26q0 -104 -36 -206q-40 -114 -127 -204t-222 -146 t-317 -58h-15q-101 0 -180 26q-85 28 -157 88q6 -24 11 -57t11 -55zM545 612q7 -84 48 -153t113 -110q56 -32 132 -32q22 0 46 3q92 10 149 61t82 120q19 52 19 110q0 18 -2 37q-8 78 -48 144t-112 108t-174 42q-92 0 -151 -50t-84 -123q-20 -57 -19 -121q-1 -18 1 -36z" />
<glyph unicode="c" horiz-adv-x="1464" d="M28 700q0 136 47 267t141 234t236 166t330 65h7q255 0 417 -143q164 -145 214 -413l-374 -38q-6 44 -22 96t-46 96t-76 74t-110 30q-102 0 -173 -58t-109 -145t-43 -190q-1 -17 -1 -33q0 -85 22 -160q26 -90 85 -155t151 -77q22 -3 43 -2q93 0 158 51q79 63 113 183 l384 -6q-40 -286 -202 -416t-428 -136h-24q-177 0 -311 55q-143 59 -239 160t-143 230t-47 265z" />
<glyph unicode="d" horiz-adv-x="1596" d="M51 628q5 118 55 231t143 201t230 142t315 54q50 0 102 -11t98 -28t81 -36t53 -33q0 8 -5 51t-10 93t-10 92t-5 52l462 22q-12 -66 -20 -181t-13 -253t-5 -287t6 -288t17 -255t31 -184l-484 -44q2 12 4 30t2 37t1 38t5 31q-72 -60 -157 -88q-79 -26 -180 -26h-15 q-182 2 -317 58t-222 146t-127 204q-36 101 -36 206q0 13 1 26zM474 650q-2 -19 -2 -37q0 -57 19 -110q25 -69 82 -120t149 -61q24 -3 46 -3q75 0 131 32q73 41 114 110t48 153q2 18 2 36q0 64 -20 121q-25 73 -84 122t-151 51h-9q-96 0 -165 -41q-72 -43 -112 -109 t-48 -144z" />
<glyph unicode="e" horiz-adv-x="1470" d="M56 688q0 138 45 271t136 238t227 169t318 66q146 0 268 -61t207 -166t125 -245q28 -97 28 -201q0 -47 -6 -95l-942 -10v-8q0 -136 64 -224q66 -90 198 -106q22 -3 43 -3q93 0 158 52q79 63 113 183l384 -6q-20 -144 -71 -245t-131 -167t-187 -99t-241 -41q-28 -2 -55 -2 q-150 0 -267 48q-138 56 -230 155t-138 229t-46 268zM510 928l514 4q-34 106 -102 155q-63 45 -133 45h-12q-77 -4 -150 -56t-117 -148z" />
<glyph unicode="f" horiz-adv-x="1118" d="M36 376l6 450q20 -4 69 -4t89 -8q8 84 20 170t35 167t60 151t94 121t138 80q71 25 165 25h26q92 -4 189 -36t193 -96l-140 -324q-91 50 -168 50q-25 0 -48 -5q-96 -21 -132 -145q-10 -30 -14 -79t-8 -113q94 6 205 23t243 51l6 -470q-94 12 -212 22t-246 14 q4 -102 8 -203t8 -197l-436 -22q0 84 -1 185t-1 209q-14 -4 -35 -5l-42 -2t-40 -3t-31 -6z" />
<glyph unicode="g" d="M32 812v13q0 107 32 212q34 111 106 201t184 149t268 71q23 2 46 2q91 0 183 -26q115 -32 217 -114q0 20 -3 45t-6 49t-8 44t-7 32l434 28q4 -78 14 -182t20 -224t17 -251q5 -102 5 -202v-57q-2 -204 -44 -364t-131 -276t-228 -189t-335 -101q-62 -9 -123 -9 q-87 0 -171 18q-144 31 -264 101l194 300q90 -41 188 -41q13 0 26 1q112 6 208 53t163 131t81 198q-120 -100 -246 -137q-101 -30 -197 -30q-23 0 -46 2q-117 9 -221 58t-183 126t-125 172t-48 197zM440 862v-16q0 -83 38 -138q42 -60 107 -87q59 -24 126 -24h15 q76 3 141 34t107 91q38 55 38 130v14q-4 76 -43 128t-98 80t-129 30h-10q-64 0 -122 -24q-62 -26 -109 -80t-61 -138z" />
<glyph unicode="h" horiz-adv-x="1640" d="M54 0q18 68 30 185t17 257t5 292t-5 292t-14 255t-21 183l448 18q0 -6 -3 -36t-7 -72t-9 -90t-9 -90t-7 -72t-3 -36q20 30 63 64t100 60t123 42q48 12 97 11q18 0 37 -1q150 -12 260 -77t188 -166t127 -228t76 -263t35 -271q5 -90 6 -172q0 -41 -2 -79l-470 -22 q5 67 5 132q0 103 -12 201q-19 159 -63 278t-108 188q-60 65 -135 65h-9q-46 -2 -83 -16t-68 -49t-55 -97t-44 -159t-35 -235t-29 -326z" />
<glyph unicode="i" horiz-adv-x="578" d="M46 6q2 22 9 49t14 72t13 113t6 169t-6 242t-22 331l460 22q-20 -102 -29 -231q-7 -97 -7 -197q0 -33 1 -67q3 -135 19 -266t48 -233zM56 1278q0 74 33 123t83 74t108 25t108 -25t83 -74t33 -123q0 -72 -33 -120t-83 -72t-108 -24t-108 24t-83 72t-33 120z" />
<glyph unicode="j" horiz-adv-x="882" d="M-22 -254l60 374q62 -12 114 -15q9 -1 18 -1q41 0 74 12q40 14 70 48t48 96q28 102 28 281t-14 447l466 28v-198t-2 -203t-9 -199t-23 -188q-18 -100 -53 -186t-94 -153t-142 -111t-193 -62q-43 -7 -87 -7q-38 0 -77 5q-86 10 -184 32zM374 1284q0 74 33 123t83 74 t108 25t108 -25t83 -74t33 -123q0 -72 -33 -120t-83 -72t-108 -24t-108 24t-83 72t-33 120z" />
<glyph unicode="k" horiz-adv-x="1318" d="M56 -42q18 46 35 159t24 297q4 99 4 219q0 103 -3 221q-6 256 -34 588l464 34q-10 -70 -17 -169t-11 -243q36 24 94 58t127 76t140 88t135 94l266 -342q-58 -24 -147 -71t-180 -100t-172 -102t-125 -77q70 -60 152 -118t166 -109t162 -94t140 -73l-300 -340 q-44 52 -105 110t-125 111t-123 99t-97 74q6 -96 14 -191t22 -147z" />
<glyph unicode="l" horiz-adv-x="586" d="M48 6q6 2 18 89t21 267t10 456v37q0 264 -13 621l466 -26q-14 -68 -24 -182t-16 -251t-6 -286t6 -286t18 -252t34 -183z" />
<glyph unicode="m" horiz-adv-x="2540" d="M70 2q18 70 30 178t16 236q3 102 3 211v55q-1 138 -6 265t-14 234t-21 175l434 16q-2 -18 -2 -53t-2 -53q26 22 62 46t84 43t112 33t148 14h10q120 0 211 -47q95 -49 165 -133q88 96 217 148q105 42 249 42q33 0 68 -2q150 -10 257 -87t180 -197t116 -269t66 -305 t28 -304q3 -82 3 -155q0 -58 -2 -109l-452 -20q8 116 8 243t-9 248t-30 230t-55 188t-84 122q-41 35 -93 35q-12 0 -25 -2q-86 -12 -141 -88t-82 -207t-30 -314v-59q0 -160 13 -348l-470 10q2 40 12 133t16 206q4 75 4 154q0 39 -1 80q-3 121 -27 218t-75 156 q-45 52 -119 52q-10 0 -20 -1q-78 -8 -133 -68t-94 -185t-66 -322t-47 -479z" />
<glyph unicode="n" horiz-adv-x="1622" d="M70 2q18 70 30 178t16 236q3 102 3 211v55q-1 138 -6 265t-14 234t-21 175l434 16q-2 -18 -2 -53t-2 -53q26 22 62 46t84 43t112 33t148 14h8q145 0 250 -69q108 -71 182 -187t118 -266t67 -305t29 -305q4 -90 4 -168q0 -52 -2 -98l-452 -20q6 84 6 172q0 33 -1 67 q-3 123 -16 240t-38 220t-60 179t-82 119q-43 39 -95 39h-10q-78 -6 -133 -65t-94 -185t-66 -324t-47 -480z" />
<glyph unicode="o" horiz-adv-x="1526" d="M68 737q8 135 58 263t141 229t224 162t307 63h11q177 0 306 -63q133 -65 217 -170t120 -241q28 -106 28 -215q0 -30 -2 -61q-10 -140 -65 -273t-154 -234t-241 -159q-121 -49 -271 -49q-26 0 -53 1q-166 8 -287 76t-199 172t-113 234q-28 106 -28 215q0 25 1 50zM480 752 q-3 -33 -3 -65q0 -45 6 -89q11 -76 41 -136t79 -99t119 -41q11 -1 21 0q96 0 164 50q75 56 117 144t49 192q1 22 1 44q0 80 -20 152q-26 92 -85 158t-149 76q-16 2 -31 2q-57 0 -105 -24q-60 -30 -103 -85t-68 -128t-33 -151z" />
<glyph unicode="p" horiz-adv-x="1594" d="M30 -256q12 66 22 192t18 280t11 324q1 85 1 166.5t-1 158.5q-3 155 -13 281t-28 196l484 58q-4 -12 -6 -32t-5 -42t-6 -43t-5 -33q102 82 217 114q92 26 183 26q23 0 46 -2q154 -12 268 -72t187 -151t106 -205q28 -96 28 -195q0 -18 -1 -36q-6 -117 -52 -228t-130 -200 t-207 -144t-283 -61q-13 -1 -26 -1q-83 0 -167 23q-97 26 -193 86v-44v-91t-1 -114t-1 -114v-91v-44zM544 716v-19q0 -99 39 -162q43 -69 111 -99q54 -24 114 -24q16 0 33 2q79 8 146 50t110 116q38 65 38 153q0 12 -1 25q-6 100 -51 160t-110 86q-50 20 -105 20 q-17 0 -34 -2q-74 -8 -137 -46t-107 -104t-46 -156z" />
<glyph unicode="q" horiz-adv-x="1584" d="M58 731q-1 18 -1 36q0 99 28 195q33 114 106 205t187 151t268 72q23 2 46 2q91 0 183 -26q115 -32 217 -114q-4 12 -6 33t-5 43t-6 42t-5 32l480 14q-18 -70 -29 -196t-15 -282q-3 -104 -3 -214q0 -55 1 -111q2 -169 9 -324t16 -281t21 -192l-452 8q0 6 2 35t3 69t4 87 t4 87t3 69t2 35q-96 -60 -193 -86q-84 -23 -167 -23q-13 0 -26 1q-160 6 -283 61t-207 144t-130 200t-52 228zM460 760q-1 -13 -1 -25q0 -88 38 -153q43 -74 110 -116t146 -50q17 -2 33 -2q60 0 114 24q68 30 111 99q39 63 39 162v19q-4 90 -47 156t-106 104t-137 46 q-17 2 -34 2q-55 0 -105 -20q-65 -26 -110 -87t-51 -159z" />
<glyph unicode="r" horiz-adv-x="1464" d="M34 -36q16 68 29 184t21 256t13 291t5 291t-5 255t-13 183l424 38q0 -10 1 -38t2 -60t2 -61t1 -37q26 22 62 46t84 43t112 33t148 14q96 0 174 -28t143 -80t116 -124t91 -156l-410 -196q-36 96 -88 151q-48 51 -109 51h-9q-86 -4 -152 -56t-109 -171t-61 -312 q-12 -124 -12 -287q0 -91 4 -194z" />
<glyph unicode="s" horiz-adv-x="1380" d="M42 500l394 52q14 -68 49 -114t80 -74t95 -38q28 -6 53 -6q20 0 39 4q42 8 73 33t37 65q2 10 2 19q0 44 -40 70q-48 31 -127 55t-176 48t-185 70t-155 123t-87 203q-4 26 -4 50q0 83 47 155q61 93 170 153t250 82q63 10 127 9q79 0 159 -14q145 -27 278 -109t223 -230 l-332 -140q-30 48 -72 82t-87 55t-92 28q-37 5 -70 5h-19q-52 -4 -91 -24t-57 -51q-12 -21 -12 -48q0 -12 2 -25q8 -42 50 -86q46 -48 122 -71t164 -39t178 -35t162 -58t116 -109q42 -67 42 -178v-10q-2 -98 -55 -176t-139 -131t-196 -81t-226 -28t-231 30t-210 92t-162 160 t-87 232z" />
<glyph unicode="t" horiz-adv-x="1116" d="M44 1136q46 -10 120 -18t184 -10q-4 108 -13 197t-19 147l450 34q-8 -192 -12 -358q74 8 155 17t175 21l-22 -468q-66 14 -145 24t-165 14q2 -360 17 -543t25 -187l-508 -22q16 50 28 132t21 183t14 211t5 218q-76 -8 -151 -20t-137 -30z" />
<glyph unicode="u" d="M53 760q-5 71 -5 143q0 91 8 184q14 165 44 313l444 -8q-20 -122 -26 -248q-3 -63 -3 -123.5t3 -119.5q6 -117 25 -219t52 -176t78 -115q41 -37 93 -37h10q78 6 132 63t93 180t65 319t46 478l412 12q-18 -86 -27 -207t-12 -256q-2 -68 -1.5 -136.5t1.5 -139.5 q3 -141 9 -269t15 -232t21 -164l-444 -30q0 8 1 27t1 40t1 40t1 29q-28 -22 -63 -44t-83 -41t-112 -33t-148 -18q-19 -1 -37 -1q-138 0 -239 54q-114 61 -189 170t-115 256t-51 309z" />
<glyph unicode="v" horiz-adv-x="1510" d="M26 1292l450 124q8 -68 39 -172t75 -227t94 -253t98 -250q48 120 89 255t74 264t56 239t31 178l450 -124q-136 -358 -226 -607t-144 -407t-75 -232q-16 -58 -16 -73q0 -4 1 -5l-534 24q-14 50 -29 98t-36 110t-53 148t-79 210t-112 295t-153 405z" />
<glyph unicode="w" horiz-adv-x="2302" d="M24 1300l462 126q8 -68 30 -176t54 -234t73 -259t89 -253q26 64 58 136t66 146t65 148t53 140h378q18 -64 41 -141t48 -154t51 -149t48 -126q48 120 96 257t88 268t69 242t37 179l450 -124q-88 -234 -152 -408t-109 -303t-74 -220t-50 -159t-34 -119t-27 -101l-534 -24 q2 2 -5 41t-26 105t-48 158t-67 202q-58 -162 -82 -281t-46 -201l-578 -10q2 1 2 8q0 16 -11 65q-15 69 -62 221t-133 397t-220 603z" />
<glyph unicode="x" horiz-adv-x="1392" d="M2 292q4 -2 37 20t90 69t136 123t175 182q-64 72 -128 139t-122 125t-107 104t-81 74l350 310q90 -124 170 -247t156 -219q76 96 163 219t177 247l350 -310q-34 -28 -83 -73t-107 -101t-123 -121t-127 -137q194 -214 312 -311q113 -93 127 -93h1l-404 -316q-14 36 -40 86 t-62 107t-80 119t-94 124q-50 -62 -95 -124t-82 -119t-64 -107t-41 -86z" />
<glyph unicode="y" horiz-adv-x="1512" d="M39 1023q9 215 79 453l422 -42q-28 -150 -47 -298q-12 -91 -12 -169q0 -50 5 -95q12 -116 67 -186q51 -64 160 -64h19q102 4 165 69t91 177q24 98 24 227v37q-4 152 -34 330l434 28q12 -104 24 -217t21 -230t11 -236v-47q0 -95 -6 -188q-12 -164 -54 -314t-126 -271 t-219 -203t-335 -112q-62 -9 -123 -9q-87 0 -171 18q-144 31 -264 101l194 300q90 -41 188 -41q13 0 26 1q112 6 208 53t163 131t81 198q-56 -54 -110 -88t-106 -51t-104 -22q-29 -3 -58 -3q-24 0 -48 2q-204 10 -331 112t-185 268q-50 144 -50 324q0 28 1 57z" />
<glyph unicode="z" horiz-adv-x="1360" d="M22 1452q28 -6 118 -20t249 -27t389 -20q107 -3 232 -3q143 0 308 4l4 -374q-112 -68 -219 -156t-205 -178t-182 -171t-152 -133q114 0 227 7t214 20t184 29t139 34l4 -484q-12 2 -79 11t-214 18t-387 13q-60 1 -127 1q-202 0 -471 -9l14 436q88 64 168 119t158 115 t158 136t168 182q-58 8 -140 16t-175 11q-40 1 -81 1q-55 0 -111 -2q-99 -4 -189 -20z" />
<glyph unicode="{" horiz-adv-x="924" d="M24 758l194 174q-2 174 46 336t138 284t219 192t289 62l-4 -290q-78 -6 -143 -59t-111 -136t-70 -188t-20 -215l-146 -154l194 -192q-18 -108 -10 -218t41 -197t89 -139t138 -44l-26 -332q-138 -2 -238 42t-171 117t-113 167t-65 194t-27 197t2 177z" />
<glyph unicode="|" horiz-adv-x="1494" d="M67 856q-21 100 7 175t96 120t159 55t196 -21t207 -111q140 116 259 167t209 48t148 -53t78 -135t-2 -198t-92 -242t-191 -268t-299 -275q-254 138 -416 270t-250 250t-109 218z" />
<glyph unicode="}" horiz-adv-x="940" d="M24 1806q160 8 289 -62t219 -192t138 -284t46 -336l194 -174l-206 -222q6 -80 2 -177t-27 -197t-65 -194t-113 -167t-171 -117t-238 -42l-26 332q80 -8 137 44t90 139t41 197t-10 218l194 192l-146 154q2 110 -21 215t-69 188t-111 136t-143 59z" />
<glyph unicode="~" horiz-adv-x="1170" d="M28 606q26 130 97 212t161 106q58 16 113 10t105 -23t95 -40t83 -40t70 -22t58 13q48 32 66 102l260 -62q-34 -138 -101 -212t-163 -86q-50 -6 -96 6t-89 33t-82 44t-77 36t-74 12t-72 -27q-18 -14 -37 -44t-39 -82z" />
<glyph unicode="&#xa1;" horiz-adv-x="622" d="M56 -64q4 22 12 51t18 77t19 119t13 175t-1 247t-21 333l460 22q-20 -102 -34 -235t-15 -273t11 -275t44 -237zM92 1234q0 74 33 123t83 74t108 25t108 -25t83 -74t33 -123q0 -72 -33 -120t-83 -72t-108 -24t-108 24t-83 72t-33 120z" />
<glyph unicode="&#xa2;" horiz-adv-x="1464" d="M27 695q-1 159 60 302t182 254t305 155q-2 22 -3 45t-1 45l406 30q-4 -22 -8 -51t-8 -63q184 -46 302 -182t158 -354l-374 -38q-6 54 -29 117t-67 111q0 -156 6 -325t18 -327q42 54 64 134l384 -6q-32 -222 -133 -347t-271 -173q12 -62 24 -100l-460 -18q6 4 10 102 q-188 36 -313 142t-188 247t-64 300zM466 697q2 -97 35 -186t97 -141q-2 134 -4 302t-8 374q-62 -64 -92 -158t-28 -191z" />
<glyph unicode="&#xa3;" horiz-adv-x="1214" d="M24 450l6 450q20 -4 69 -4t89 -8q12 126 34 246t77 213t154 149t265 50q92 -4 189 -36t193 -96l-140 -324q-88 48 -157 50t-117 -31t-72 -99t-24 -156q94 6 209 23t247 51l6 -470q-94 12 -216 22t-250 14q0 -26 1 -55t1 -59q54 -12 128 -21t154 -10t159 6t143 29l16 -418 q-122 18 -243 28t-246 13t-256 -1t-273 -14l2 474q-14 -4 -35 -5l-42 -2t-40 -3t-31 -6z" />
<glyph unicode="&#xa5;" d="M16 1302l418 152q30 -66 73 -156t95 -180t109 -170t111 -124q40 42 84 123t86 175t79 188t65 162l430 -168q-94 -138 -162 -247t-123 -204t-103 -181t-98 -178q40 6 64 12l30 -206q-34 4 -73 6t-81 4v-86q38 4 72 9t62 11l16 -200q-18 0 -54 1t-86 3q4 -22 7 -43t7 -41 l-462 -36q4 22 6 51t2 65q-34 -2 -67 -4t-65 -6l16 198q26 -4 55 -7t59 -7v86q-36 -4 -69 -9t-61 -11v214q20 -6 90 -12q-42 76 -94 156t-117 176t-144 213t-177 271z" />
<glyph unicode="&#xa8;" horiz-adv-x="790" d="M22 1676q0 80 52 120t115 40t115 -40t52 -120q0 -82 -52 -124t-115 -42t-115 41t-52 125zM422 1676q0 80 52 120t115 40t115 -40t52 -120q0 -82 -52 -124t-115 -42t-115 41t-52 125z" />
<glyph unicode="&#xa9;" horiz-adv-x="1836" d="M30 711q-10 139 33 274t142 244t256 180t375 81q216 10 380 -48t274 -160t166 -237t58 -278t-49 -282t-157 -249t-265 -178t-373 -72q-192 -4 -344 57t-259 163t-167 234t-70 271zM432 742q0 -122 49 -227t146 -175t241 -70q148 0 246 70t148 175t51 227t-46 227 t-143 175t-238 70q-152 0 -253 -70t-151 -175t-50 -227zM578 740q-4 84 26 158t93 127t163 63q72 6 128 -19t94 -66t58 -90t22 -87l-208 -40q-4 24 -18 51t-48 27q-40 0 -61 -32t-24 -71t14 -73t53 -38q62 -6 82 62l212 -10q-6 -78 -38 -132t-75 -87t-89 -47t-80 -14 q-96 -2 -163 45t-102 118t-39 155z" />
<glyph unicode="&#xab;" horiz-adv-x="2192" d="M96 412l4 526q82 24 164 58t172 80t192 106t222 136l196 -424q-76 -16 -167 -50t-172 -71t-139 -67t-68 -36q122 -38 196 -60t127 -34t100 -18t115 -8l-88 -458q-128 72 -247 124t-228 90t-204 63t-175 43zM1160 406l4 526q82 24 164 58t172 80t192 106t222 136l196 -424 q-76 -16 -167 -50t-172 -71t-139 -67t-68 -36q122 -38 196 -60t127 -34t100 -18t115 -8l-88 -458q-128 72 -247 124t-228 90t-204 63t-175 43z" />
<glyph unicode="&#xad;" horiz-adv-x="1262" d="M70 486v452q36 -12 106 -21t162 -16t198 -9t212 3t206 16t180 33l24 -444q-156 16 -289 28t-261 14t-258 -11t-280 -45z" />
<glyph unicode="&#xaf;" horiz-adv-x="1212" d="M98 1532v402q32 -10 96 -19t148 -15t180 -8t192 2t187 14t163 30l22 -394q-142 16 -263 27t-236 13t-233 -10t-256 -42z" />
<glyph unicode="&#xb0;" horiz-adv-x="516" d="M28 1262q0 72 33 120t83 72t108 24t108 -24t83 -72t33 -120q0 -74 -33 -123t-83 -74t-108 -25t-108 25t-83 74t-33 123zM218 1260q0 -16 11 -25t23 -9t23 9t11 25t-11 24t-23 8t-23 -8t-11 -24z" />
<glyph unicode="&#xb1;" horiz-adv-x="1010" d="M118 684v332q34 -10 106 -18t164 -12q0 76 -6 144t-18 126l328 6q-12 -76 -21 -143t-15 -131q68 4 131 11t115 21l18 -326q-76 8 -145 15t-133 11q6 -118 30 -260l-332 12q10 30 20 97t18 153q-60 -4 -125 -13t-135 -25zM132 128v334q26 -8 78 -16t120 -12t146 -6t156 2 t152 12t132 24l18 -328q-116 12 -214 21t-192 10t-190 -8t-206 -33z" />
<glyph unicode="&#xb2;" horiz-adv-x="700" d="M14 1238q22 114 108 183t240 67q106 0 172 -41t95 -104t22 -142t-46 -157t-108 -146t-165 -110q30 2 76 12t94 23t90 26t64 19l26 -264h-159t-147 -1t-158 -4t-192 -11l-4 236q46 6 101 33t109 67t99 88t72 97t29 92t-32 75q-24 20 -53 18t-55 -18t-46 -42t-26 -54z" />
<glyph unicode="&#xb3;" horiz-adv-x="802" d="M14 908l240 24q2 -60 36 -95t76 -45t80 4t50 50q12 40 -4 64t-45 37t-64 18t-63 7v156q52 -12 90 8t58 52t17 66t-33 46q-22 8 -51 5t-59 -16t-59 -35t-53 -50l-204 84q68 100 162 150t189 58t177 -19t124 -79q42 -54 39 -138t-73 -168q70 -34 113 -100t27 -166 q-12 -78 -74 -133t-147 -82t-182 -24t-179 38t-136 105t-52 178z" />
<glyph unicode="&#xb4;" horiz-adv-x="522" d="M46 1610q70 80 119 158t89 160l218 -128q-70 -80 -120 -152t-88 -152z" />
<glyph unicode="&#xb8;" horiz-adv-x="590" d="M58 -480l4 190q84 -6 141 16t69 50t-33 48t-169 6v238l224 4l-8 -98q78 -4 129 -25t82 -51t43 -65t10 -67q-4 -50 -36 -97t-94 -83t-152 -54t-210 -12z" />
<glyph unicode="&#xb9;" horiz-adv-x="366" d="M38 574q4 2 10 53t9 158t1 273t-10 394l272 16q-8 -40 -13 -108t-8 -151t-2 -172t6 -171t13 -151t22 -109z" />
<glyph unicode="&#xbb;" horiz-adv-x="2140" d="M96 894l196 424q120 -76 222 -136t192 -106t172 -80t164 -58l4 -526q-80 -18 -175 -43t-204 -63t-228 -90t-247 -124l-88 458q68 2 115 8t100 18t126 34t197 60q-10 6 -68 36t-139 67t-172 71t-167 50zM1124 888l196 424q120 -76 222 -136t192 -106t172 -80t164 -58 l4 -526q-80 -18 -175 -43t-204 -63t-228 -90t-247 -124l-88 458q68 2 115 8t100 18t126 34t197 60q-10 6 -68 36t-139 67t-172 71t-167 50z" />
<glyph unicode="&#xbc;" horiz-adv-x="1882" d="M38 574q4 2 10 53t9 158t1 273t-10 394l272 16q-8 -40 -13 -108t-8 -151t-2 -172t6 -171t13 -151t22 -109zM110 144q16 8 100 121t209 304t278 447t309 552l294 -236q-46 -50 -122 -158t-165 -245t-181 -291t-171 -298t-135 -264t-74 -190zM1044 876l272 -6 q-10 -52 -16 -142t-8 -198q40 -6 68 -9t54 -3t53 2t67 8q10 82 6 178t-20 178l282 -8q-6 -34 -11 -99t-8 -148t-3 -175t3 -178t9 -161t18 -121l-300 -10q2 8 3 39t1 78t1 103t5 116q-26 6 -80 9t-119 4t-135 -1t-126 -6q6 76 10 144t3 134t-8 132t-21 140z" />
<glyph unicode="&#xbd;" horiz-adv-x="1634" d="M84 606q4 2 10 53t9 158t1 273t-10 394l272 16q-8 -40 -13 -108t-8 -151t-2 -172t6 -171t13 -151t22 -109zM128 144q16 8 100 121t209 304t278 447t309 552l294 -236q-46 -50 -122 -158t-165 -245t-181 -291t-171 -298t-135 -264t-74 -190zM914 588q22 114 108 183 t240 67q106 0 172 -41t95 -104t22 -142t-46 -157t-108 -146t-165 -110q30 2 76 12t94 23t90 26t64 19l26 -264h-159t-147 -1t-158 -4t-192 -11l-4 236q46 6 101 33t109 67t99 88t72 97t29 92t-32 75q-24 20 -53 18t-55 -18t-46 -42t-26 -54z" />
<glyph unicode="&#xbe;" horiz-adv-x="2192" d="M50 928l240 24q2 -60 36 -95t76 -45t80 4t50 50q12 40 -4 64t-45 37t-64 18t-63 7v156q52 -12 90 8t58 52t17 66t-33 46q-22 8 -51 5t-59 -16t-59 -35t-53 -50l-204 84q68 100 162 150t189 58t177 -19t124 -79q42 -54 39 -138t-73 -168q70 -34 113 -100t27 -166 q-12 -78 -74 -133t-147 -82t-182 -24t-179 38t-136 105t-52 178zM428 144q16 8 100 121t209 304t278 447t309 552l294 -236q-46 -50 -122 -158t-165 -245t-181 -291t-171 -298t-135 -264t-74 -190zM1370 844l272 -6q-10 -52 -16 -142t-8 -198q40 -6 68 -9t54 -3t53 2t67 8 q10 82 6 178t-20 178l282 -8q-6 -34 -11 -100t-8 -148t-3 -174t3 -178t9 -161t18 -121l-300 -10q2 8 3 39t1 78t1 103t5 116q-26 6 -80 9t-119 4t-135 -1t-126 -6q6 76 10 144t3 134t-8 132t-21 140z" />
<glyph unicode="&#xbf;" horiz-adv-x="1190" d="M58 390q-14 128 29 234t123 178t187 104t221 14l-18 172l350 -4l-32 -422q-60 22 -138 27t-148 -14t-118 -66t-48 -131q0 -60 47 -109t143 -63q28 -4 61 0t63 17t55 38t37 63l304 -108q-50 -128 -147 -212t-216 -124t-246 -35t-235 55t-183 147t-91 239zM566 1338 q0 74 33 123t83 74t108 25t108 -25t83 -74t33 -123q0 -72 -33 -120t-83 -72t-108 -24t-108 24t-83 72t-33 120z" />
<glyph unicode="&#xc0;" horiz-adv-x="1750" d="M24 16q108 254 201 486t167 424t130 335t90 221l474 -4q24 -96 68 -218t121 -291t189 -395t270 -528l-420 -94q-18 34 -61 131t-99 229q-142 12 -299 10t-301 -18q-36 -120 -59 -214t-29 -140zM650 1830l240 104q38 -80 94 -154t134 -158l-260 -96q-38 80 -88 152 t-120 152zM672 660q74 -10 160 -12t184 6q-50 126 -94 240t-74 200q-44 -90 -89 -202t-87 -232z" />
<glyph unicode="&#xc1;" horiz-adv-x="1750" d="M24 16q108 254 201 486t167 424t130 335t90 221l474 -4q24 -96 68 -218t121 -291t189 -395t270 -528l-420 -94q-18 34 -61 131t-99 229q-142 12 -299 10t-301 -18q-36 -120 -59 -214t-29 -140zM672 660q74 -10 160 -12t184 6q-50 126 -94 240t-74 200q-44 -90 -89 -202 t-87 -232zM672 1640q70 80 119 158t89 160l218 -128q-70 -80 -120 -152t-88 -152z" />
<glyph unicode="&#xc2;" horiz-adv-x="1750" d="M24 16q108 254 201 486t167 424t130 335t90 221l474 -4q24 -96 68 -218t121 -291t189 -395t270 -528l-420 -94q-18 34 -61 131t-99 229q-142 12 -299 10t-301 -18q-36 -120 -59 -214t-29 -140zM582 1582l204 304l200 -6l232 -282l-226 -86l-100 142l-104 -138zM672 660 q74 -10 160 -12t184 6q-50 126 -94 240t-74 200q-44 -90 -89 -202t-87 -232z" />
<glyph unicode="&#xc3;" horiz-adv-x="1750" d="M24 16q108 254 201 486t167 424t130 335t90 221l474 -4q24 -96 68 -218t121 -291t189 -395t270 -528l-420 -94q-18 34 -61 131t-99 229q-142 12 -299 10t-301 -18q-36 -120 -59 -214t-29 -140zM320 1602q26 130 97 212t161 106q58 16 113 10t105 -23t95 -40t83 -40 t70 -22t58 13q48 32 66 102l260 -62q-34 -138 -101 -212t-163 -86q-50 -6 -96 6t-89 33t-82 44t-77 36t-74 12t-72 -27q-18 -14 -37 -44t-39 -82zM672 660q74 -10 160 -12t184 6q-50 126 -94 240t-74 200q-44 -90 -89 -202t-87 -232z" />
<glyph unicode="&#xc4;" horiz-adv-x="1750" d="M24 16q108 254 201 486t167 424t130 335t90 221l474 -4q24 -96 68 -218t121 -291t189 -395t270 -528l-420 -94q-18 34 -61 131t-99 229q-142 12 -299 10t-301 -18q-36 -120 -59 -214t-29 -140zM462 1700q0 80 52 120t115 40t115 -40t52 -120q0 -82 -52 -124t-115 -42 t-115 41t-52 125zM672 660q74 -10 160 -12t184 6q-50 126 -94 240t-74 200q-44 -90 -89 -202t-87 -232zM862 1700q0 80 52 120t115 40t115 -40t52 -120q0 -82 -52 -124t-115 -42t-115 41t-52 125z" />
<glyph unicode="&#xc5;" horiz-adv-x="1750" d="M24 16q108 254 201 486t167 424t130 335t90 221l474 -4q24 -96 68 -218t121 -291t189 -395t270 -528l-420 -94q-18 34 -61 131t-99 229q-142 12 -299 10t-301 -18q-36 -120 -59 -214t-29 -140zM626 1756q0 72 33 120t83 72t108 24t108 -24t83 -72t33 -120q0 -74 -33 -123 t-83 -74t-108 -25t-108 25t-83 74t-33 123zM672 660q74 -10 160 -12t184 6q-50 126 -94 240t-74 200q-44 -90 -89 -202t-87 -232zM816 1754q0 -16 11 -25t23 -9t23 9t11 25t-11 24t-23 8t-23 -8t-11 -24z" />
<glyph unicode="&#xc6;" horiz-adv-x="2112" d="M20 50q128 252 238 482t199 421t155 333t106 220q162 -30 334 -53t346 -31t348 1t340 41l10 -364q-140 20 -262 26t-220 3t-171 -12t-115 -19q-6 -46 -11 -105t-9 -125q140 -6 275 11t267 39l-18 -404q-186 48 -312 58t-220 -2q0 -60 2 -116t6 -104q54 -24 153 -30 t211 -1t220 19t178 32l16 -418q-122 18 -273 26t-312 8t-322 -6t-303 -16q8 34 21 124t25 238q-96 6 -186 7t-164 -5q-46 -120 -76 -212t-40 -138zM716 682l100 -15t124 -15q4 90 4 192t-2 216q-4 14 -8 27t-8 25q-52 -90 -105 -201t-105 -229z" />
<glyph unicode="&#xc7;" horiz-adv-x="1414" d="M22 701q-2 139 45 273t142 240t238 170t335 66q128 0 228 -29t172 -84t117 -133t65 -172l-346 -96q-6 44 -26 83t-57 66t-90 37t-123 -2q-106 -20 -173 -84t-98 -150t-27 -183t42 -181t107 -145t167 -75q122 -16 201 48t113 184l342 -118q-28 -94 -73 -174t-116 -140 t-169 -95t-232 -37q-194 -4 -341 58t-245 165t-147 236t-51 272zM620 -508l4 190q84 -6 141 16t69 50t-33 48t-169 6v238l224 4l-8 -98q78 -4 129 -25t82 -51t43 -65t10 -67q-4 -50 -36 -97t-94 -83t-152 -54t-210 -12z" />
<glyph unicode="&#xc8;" horiz-adv-x="1242" d="M6 -36q8 38 25 156t29 310t14 457t-16 597q134 -24 282 -39t298 -19t297 5t281 33l10 -364q-140 20 -262 26t-220 3t-171 -12t-115 -19q-6 -46 -11 -105t-9 -125q140 -6 275 11t267 39l-18 -404q-186 48 -312 58t-220 -2q0 -60 2 -116t6 -104q54 -24 153 -30t211 -1 t220 19t178 32l16 -418q-122 18 -273 26t-312 8t-322 -6t-303 -16zM396 1830l240 104q38 -80 94 -154t134 -158l-260 -96q-38 80 -88 152t-120 152z" />
<glyph unicode="&#xc9;" horiz-adv-x="1242" d="M6 -36q8 38 25 156t29 310t14 457t-16 597q134 -24 282 -39t298 -19t297 5t281 33l10 -364q-140 20 -262 26t-220 3t-171 -12t-115 -19q-6 -46 -11 -105t-9 -125q140 -6 275 11t267 39l-18 -404q-186 48 -312 58t-220 -2q0 -60 2 -116t6 -104q54 -24 153 -30t211 -1 t220 19t178 32l16 -418q-122 18 -273 26t-312 8t-322 -6t-303 -16zM418 1640q70 80 119 158t89 160l218 -128q-70 -80 -120 -152t-88 -152z" />
<glyph unicode="&#xca;" horiz-adv-x="1242" d="M6 -36q8 38 25 156t29 310t14 457t-16 597q134 -24 282 -39t298 -19t297 5t281 33l10 -364q-140 20 -262 26t-220 3t-171 -12t-115 -19q-6 -46 -11 -105t-9 -125q140 -6 275 11t267 39l-18 -404q-186 48 -312 58t-220 -2q0 -60 2 -116t6 -104q54 -24 153 -30t211 -1 t220 19t178 32l16 -418q-122 18 -273 26t-312 8t-322 -6t-303 -16zM328 1582l204 304l200 -6l232 -282l-226 -86l-100 142l-104 -138z" />
<glyph unicode="&#xcb;" horiz-adv-x="1242" d="M6 -36q8 38 25 156t29 310t14 457t-16 597q134 -24 282 -39t298 -19t297 5t281 33l10 -364q-140 20 -262 26t-220 3t-171 -12t-115 -19q-6 -46 -11 -105t-9 -125q140 -6 275 11t267 39l-18 -404q-186 48 -312 58t-220 -2q0 -60 2 -116t6 -104q54 -24 153 -30t211 -1 t220 19t178 32l16 -418q-122 18 -273 26t-312 8t-322 -6t-303 -16zM254 1706q0 80 52 120t115 40t115 -40t52 -120q0 -82 -52 -124t-115 -42t-115 41t-52 125zM654 1706q0 80 52 120t115 40t115 -40t52 -120q0 -82 -52 -124t-115 -42t-115 41t-52 125z" />
<glyph unicode="&#xcc;" horiz-adv-x="1354" d="M28 -8l16 422q70 -22 174 -36t224 -18q8 120 11 306t-3 456q-114 -8 -211 -19t-167 -25l2 426q38 -12 121 -21t193 -15t237 -7t252 5t239 19t198 35l-8 -432q-76 22 -189 33t-245 13q-6 -88 -9 -184t-3 -195t4 -196t12 -183q130 12 241 35t185 55l24 -468q-66 0 -189 8 t-290 12t-375 1t-444 -27zM452 1830l240 104q38 -80 94 -154t134 -158l-260 -96q-38 80 -88 152t-120 152z" />
<glyph unicode="&#xcd;" horiz-adv-x="1354" d="M28 -8l16 422q70 -22 174 -36t224 -18q8 120 11 306t-3 456q-114 -8 -211 -19t-167 -25l2 426q38 -12 121 -21t193 -15t237 -7t252 5t239 19t198 35l-8 -432q-76 22 -189 33t-245 13q-6 -88 -9 -184t-3 -195t4 -196t12 -183q130 12 241 35t185 55l24 -468q-66 0 -189 8 t-290 12t-375 1t-444 -27zM464 1640q70 80 119 158t89 160l218 -128q-70 -80 -120 -152t-88 -152z" />
<glyph unicode="&#xce;" horiz-adv-x="1354" d="M28 -8l16 422q70 -22 174 -36t224 -18q8 120 11 306t-3 456q-114 -8 -211 -19t-167 -25l2 426q38 -12 121 -21t193 -15t237 -7t252 5t239 19t198 35l-8 -432q-76 22 -189 33t-245 13q-6 -88 -9 -184t-3 -195t4 -196t12 -183q130 12 241 35t185 55l24 -468q-66 0 -189 8 t-290 12t-375 1t-444 -27zM384 1582l204 304l200 -6l232 -282l-226 -86l-100 142l-104 -138z" />
<glyph unicode="&#xcf;" horiz-adv-x="1354" d="M28 -8l16 422q70 -22 174 -36t224 -18q8 120 11 306t-3 456q-114 -8 -211 -19t-167 -25l2 426q38 -12 121 -21t193 -15t237 -7t252 5t239 19t198 35l-8 -432q-76 22 -189 33t-245 13q-6 -88 -9 -184t-3 -195t4 -196t12 -183q130 12 241 35t185 55l24 -468q-66 0 -189 8 t-290 12t-375 1t-444 -27zM310 1706q0 80 52 120t115 40t115 -40t52 -120q0 -82 -52 -124t-115 -42t-115 41t-52 125zM710 1706q0 80 52 120t115 40t115 -40t52 -120q0 -82 -52 -124t-115 -42t-115 41t-52 125z" />
<glyph unicode="&#xd0;" horiz-adv-x="1366" d="M30 584v402q24 -8 53 -15t65 -11q-4 114 -8 239t-8 267q312 54 539 11t374 -151t216 -264t67 -326q0 -92 -27 -190t-84 -190t-149 -172t-225 -133t-310 -74t-405 3q10 4 18 157t6 471q-28 -6 -58 -11t-64 -13zM492 628q4 -86 10 -170t16 -162q100 2 181 41t140 100 t93 135t40 146q6 96 -24 185t-91 156t-148 105t-193 32q-8 -60 -13 -122t-9 -126q120 8 246 42l22 -394q-158 24 -270 32z" />
<glyph unicode="&#xd1;" horiz-adv-x="1502" d="M26 -26q42 360 53 628t9 447t-11 273t-5 108l548 64q18 -40 46 -108t73 -163t113 -217t164 -266q2 154 -4 339t-22 403l492 -10q-16 -68 -29 -168t-23 -222t-15 -258t-3 -276t12 -278t30 -262l-460 -4q-34 56 -82 150t-112 212t-143 255t-175 279q-22 -148 -28 -296 t-1 -277t18 -232t29 -159zM196 1602q26 130 97 212t161 106q58 16 113 10t105 -23t95 -40t83 -40t70 -22t58 13q48 32 66 102l260 -62q-34 -138 -101 -212t-163 -86q-50 -6 -96 6t-89 33t-82 44t-77 36t-74 12t-72 -27q-18 -14 -37 -44t-39 -82z" />
<glyph unicode="&#xd2;" horiz-adv-x="1474" d="M29 716q-5 138 32 272t119 241t209 176t301 77q182 10 321 -50t233 -165t144 -242t53 -281t-40 -282t-132 -247t-225 -174t-320 -63q-166 2 -294 65t-215 167t-134 236t-52 270zM438 735q0 -111 33 -205t96 -157t155 -63q110 0 180 64t102 160t30 208t-37 207t-100 158 t-157 61q-102 -2 -170 -67t-100 -160t-32 -206zM512 1830l240 104q38 -80 94 -154t134 -158l-260 -96q-38 80 -88 152t-120 152z" />
<glyph unicode="&#xd3;" horiz-adv-x="1474" d="M29 716q-5 138 32 272t119 241t209 176t301 77q182 10 321 -50t233 -165t144 -242t53 -281t-40 -282t-132 -247t-225 -174t-320 -63q-166 2 -294 65t-215 167t-134 236t-52 270zM438 735q0 -111 33 -205t96 -157t155 -63q110 0 180 64t102 160t30 208t-37 207t-100 158 t-157 61q-102 -2 -170 -67t-100 -160t-32 -206zM524 1640q70 80 119 158t89 160l218 -128q-70 -80 -120 -152t-88 -152z" />
<glyph unicode="&#xd4;" horiz-adv-x="1474" d="M29 716q-5 138 32 272t119 241t209 176t301 77q182 10 321 -50t233 -165t144 -242t53 -281t-40 -282t-132 -247t-225 -174t-320 -63q-166 2 -294 65t-215 167t-134 236t-52 270zM438 735q0 -111 33 -205t96 -157t155 -63q110 0 180 64t102 160t30 208t-37 207t-100 158 t-157 61q-102 -2 -170 -67t-100 -160t-32 -206zM444 1582l204 304l200 -6l232 -282l-226 -86l-100 142l-104 -138z" />
<glyph unicode="&#xd5;" horiz-adv-x="1474" d="M29 716q-5 138 32 272t119 241t209 176t301 77q182 10 321 -50t233 -165t144 -242t53 -281t-40 -282t-132 -247t-225 -174t-320 -63q-166 2 -294 65t-215 167t-134 236t-52 270zM182 1602q26 130 97 212t161 106q58 16 113 10t105 -23t95 -40t83 -40t70 -22t58 13 q48 32 66 102l260 -62q-34 -138 -101 -212t-163 -86q-50 -6 -96 6t-89 33t-82 44t-77 36t-74 12t-72 -27q-18 -14 -37 -44t-39 -82zM438 735q0 -111 33 -205t96 -157t155 -63q110 0 180 64t102 160t30 208t-37 207t-100 158t-157 61q-102 -2 -170 -67t-100 -160t-32 -206z " />
<glyph unicode="&#xd6;" horiz-adv-x="1474" d="M29 716q-5 138 32 272t119 241t209 176t301 77q182 10 321 -50t233 -165t144 -242t53 -281t-40 -282t-132 -247t-225 -174t-320 -63q-166 2 -294 65t-215 167t-134 236t-52 270zM370 1706q0 80 52 120t115 40t115 -40t52 -120q0 -82 -52 -124t-115 -42t-115 41t-52 125z M438 735q0 -111 33 -205t96 -157t155 -63q110 0 180 64t102 160t30 208t-37 207t-100 158t-157 61q-102 -2 -170 -67t-100 -160t-32 -206zM770 1706q0 80 52 120t115 40t115 -40t52 -120q0 -82 -52 -124t-115 -42t-115 41t-52 125z" />
<glyph unicode="&#xd7;" horiz-adv-x="1252" d="M44 992l316 344q68 -86 129 -162t119 -144q64 74 118 147t90 141l358 -304q-84 -70 -159 -134t-141 -126q64 -58 137 -113t161 -113l-340 -334q-22 42 -80 118t-140 168q-56 -68 -110 -143t-108 -163l-344 328q42 22 122 89t174 159q-76 74 -154 136t-148 106z" />
<glyph unicode="&#xd8;" horiz-adv-x="1474" d="M29 716q-5 138 32 272t119 241t209 176t301 77q182 10 321 -50t233 -165t144 -242t53 -281t-40 -282t-132 -247t-225 -174t-320 -63q-166 2 -294 65t-215 167t-134 236t-52 270zM116 170q8 -2 72 83t175 253t264 421t337 587l386 -264q-46 -50 -118 -150t-154 -226 t-167 -267t-158 -273t-125 -244t-70 -182zM438 735q0 -111 33 -205t96 -157t155 -63q110 0 180 64t102 160t30 208t-37 207t-100 158t-157 61q-102 -2 -170 -67t-100 -160t-32 -206z" />
<glyph unicode="&#xd9;" d="M61 1090q9 162 39 310l444 -8q-28 -184 -30 -369t26 -333t87 -241t149 -95q82 -2 152 50t117 174t66 322t1 494l412 12q14 -136 18 -293t-14 -314t-64 -303t-134 -257t-224 -179t-332 -68q-170 0 -295 63t-210 170t-133 249t-66 298t-9 318zM564 1830l240 104 q38 -80 94 -154t134 -158l-260 -96q-38 80 -88 152t-120 152z" />
<glyph unicode="&#xda;" d="M61 1090q9 162 39 310l444 -8q-28 -184 -30 -369t26 -333t87 -241t149 -95q82 -2 152 50t117 174t66 322t1 494l412 12q14 -136 18 -293t-14 -314t-64 -303t-134 -257t-224 -179t-332 -68q-170 0 -295 63t-210 170t-133 249t-66 298t-9 318zM574 1640q70 80 119 158 t89 160l218 -128q-70 -80 -120 -152t-88 -152z" />
<glyph unicode="&#xdb;" d="M61 1090q9 162 39 310l444 -8q-28 -184 -30 -369t26 -333t87 -241t149 -95q82 -2 152 50t117 174t66 322t1 494l412 12q14 -136 18 -293t-14 -314t-64 -303t-134 -257t-224 -179t-332 -68q-170 0 -295 63t-210 170t-133 249t-66 298t-9 318zM494 1582l204 304l200 -6 l232 -282l-226 -86l-100 142l-104 -138z" />
<glyph unicode="&#xdc;" d="M61 1090q9 162 39 310l444 -8q-28 -184 -30 -369t26 -333t87 -241t149 -95q82 -2 152 50t117 174t66 322t1 494l412 12q14 -136 18 -293t-14 -314t-64 -303t-134 -257t-224 -179t-332 -68q-170 0 -295 63t-210 170t-133 249t-66 298t-9 318zM420 1706q0 80 52 120t115 40 t115 -40t52 -120q0 -82 -52 -124t-115 -42t-115 41t-52 125zM820 1706q0 80 52 120t115 40t115 -40t52 -120q0 -82 -52 -124t-115 -42t-115 41t-52 125z" />
<glyph unicode="&#xdd;" d="M16 1302l418 152q30 -66 73 -156t95 -180t109 -170t111 -124q40 42 84 123t86 175t79 188t65 162l430 -168q-106 -158 -181 -278t-135 -224t-113 -202t-115 -212q0 -46 -1 -101t1 -111t7 -111t15 -101l-462 -36q6 30 8 78t1 110t-2 137t-1 157q-44 86 -97 172t-122 189 t-156 231t-197 300zM574 1640q70 80 119 158t89 160l218 -128q-70 -80 -120 -152t-88 -152z" />
<glyph unicode="&#xde;" horiz-adv-x="1706" d="M32 -50q18 68 29 187t16 262t3 299t-8 298t-15 259t-21 185l452 -6q0 -10 -2 -39t-3 -64t-3 -65t-2 -38q18 14 53 33t81 36t97 28t103 11q178 0 315 -54t230 -142t143 -201t55 -231t-35 -232t-127 -204t-222 -146t-317 -58q-110 -2 -195 26t-157 88q2 -12 5 -40t6 -58 t5 -57t6 -39zM545 694q7 -84 48 -153t113 -110t178 -29q92 10 149 61t82 120t17 147t-48 144t-112 108t-174 42q-92 0 -151 -50t-84 -123t-18 -157z" />
<glyph unicode="&#xdf;" horiz-adv-x="1424" d="M52 -192q12 62 16 183t4 272t-3 320t-3 329q0 76 1 145t16 129t50 111t102 90t173 67t264 44q128 12 251 5t220 -45t159 -114t68 -198q4 -80 -24 -155t-72 -136t-97 -103t-101 -56q104 -20 168 -66t97 -102t39 -115t-6 -107q-26 -108 -95 -178t-173 -112t-238 -57 t-290 -11l10 290q62 -2 128 4t120 24t89 49t35 79q0 44 -29 75t-83 48t-128 22t-160 -3l-12 316q74 0 161 8t163 34t128 73t56 125q2 30 -20 54t-64 39t-100 20t-130 -1q-72 -8 -136 -25t-111 -51t-72 -91t-21 -143l50 -1136z" />
<glyph unicode="&#xe0;" horiz-adv-x="1594" d="M56 724q6 136 57 267t146 233t232 164t315 62q50 0 102 -11t98 -28t81 -36t53 -33l-4 36l-4 36l428 8q-14 -68 -24 -180t-15 -246t-5 -279t6 -279t19 -247t35 -181l-496 -2q6 22 12 46l12 48q-72 -60 -157 -88t-195 -26q-182 2 -316 67t-220 168t-126 234t-34 267z M480 747q-10 -103 13 -194t80 -156t149 -75q106 -12 179 44t115 146t51 199t-15 203t-82 158t-150 66q-102 0 -175 -57t-114 -144t-51 -190zM572 1800l240 104q38 -80 94 -154t134 -158l-260 -96q-38 80 -88 152t-120 152z" />
<glyph unicode="&#xe1;" horiz-adv-x="1594" d="M56 724q6 136 57 267t146 233t232 164t315 62q50 0 102 -11t98 -28t81 -36t53 -33l-4 36l-4 36l428 8q-14 -68 -24 -180t-15 -246t-5 -279t6 -279t19 -247t35 -181l-496 -2q6 22 12 46l12 48q-72 -60 -157 -88t-195 -26q-182 2 -316 67t-220 168t-126 234t-34 267z M480 747q-10 -103 13 -194t80 -156t149 -75q106 -12 179 44t115 146t51 199t-15 203t-82 158t-150 66q-102 0 -175 -57t-114 -144t-51 -190zM584 1610q70 80 119 158t89 160l218 -128q-70 -80 -120 -152t-88 -152z" />
<glyph unicode="&#xe2;" horiz-adv-x="1594" d="M56 724q6 136 57 267t146 233t232 164t315 62q50 0 102 -11t98 -28t81 -36t53 -33l-4 36l-4 36l428 8q-14 -68 -24 -180t-15 -246t-5 -279t6 -279t19 -247t35 -181l-496 -2q6 22 12 46l12 48q-72 -60 -157 -88t-195 -26q-182 2 -316 67t-220 168t-126 234t-34 267z M478 1552l204 304l200 -6l232 -282l-226 -86l-100 142l-104 -138zM480 747q-10 -103 13 -194t80 -156t149 -75q106 -12 179 44t115 146t51 199t-15 203t-82 158t-150 66q-102 0 -175 -57t-114 -144t-51 -190z" />
<glyph unicode="&#xe3;" horiz-adv-x="1594" d="M56 724q6 136 57 267t146 233t232 164t315 62q50 0 102 -11t98 -28t81 -36t53 -33l-4 36l-4 36l428 8q-14 -68 -24 -180t-15 -246t-5 -279t6 -279t19 -247t35 -181l-496 -2q6 22 12 46l12 48q-72 -60 -157 -88t-195 -26q-182 2 -316 67t-220 168t-126 234t-34 267z M242 1572q26 130 97 212t161 106q58 16 113 10t105 -23t95 -40t83 -40t70 -22t58 13q48 32 66 102l260 -62q-34 -138 -101 -212t-163 -86q-50 -6 -96 6t-89 33t-82 44t-77 36t-74 12t-72 -27q-18 -14 -37 -44t-39 -82zM480 747q-10 -103 13 -194t80 -156t149 -75 q106 -12 179 44t115 146t51 199t-15 203t-82 158t-150 66q-102 0 -175 -57t-114 -144t-51 -190z" />
<glyph unicode="&#xe4;" horiz-adv-x="1594" d="M56 724q6 136 57 267t146 233t232 164t315 62q50 0 102 -11t98 -28t81 -36t53 -33l-4 36l-4 36l428 8q-14 -68 -24 -180t-15 -246t-5 -279t6 -279t19 -247t35 -181l-496 -2q6 22 12 46l12 48q-72 -60 -157 -88t-195 -26q-182 2 -316 67t-220 168t-126 234t-34 267z M430 1676q0 80 52 120t115 40t115 -40t52 -120q0 -82 -52 -124t-115 -42t-115 41t-52 125zM480 747q-10 -103 13 -194t80 -156t149 -75q106 -12 179 44t115 146t51 199t-15 203t-82 158t-150 66q-102 0 -175 -57t-114 -144t-51 -190zM830 1676q0 80 52 120t115 40t115 -40 t52 -120q0 -82 -52 -124t-115 -42t-115 41t-52 125z" />
<glyph unicode="&#xe5;" horiz-adv-x="1594" d="M56 724q6 136 57 267t146 233t232 164t315 62q50 0 102 -11t98 -28t81 -36t53 -33l-4 36l-4 36l428 8q-14 -68 -24 -180t-15 -246t-5 -279t6 -279t19 -247t35 -181l-496 -2q6 22 12 46l12 48q-72 -60 -157 -88t-195 -26q-182 2 -316 67t-220 168t-126 234t-34 267z M480 747q-10 -103 13 -194t80 -156t149 -75q106 -12 179 44t115 146t51 199t-15 203t-82 158t-150 66q-102 0 -175 -57t-114 -144t-51 -190zM572 1748q0 72 33 120t83 72t108 24t108 -24t83 -72t33 -120q0 -74 -33 -123t-83 -74t-108 -25t-108 25t-83 74t-33 123zM762 1746 q0 -16 11 -25t23 -9t23 9t11 25t-11 24t-23 8t-23 -8t-11 -24z" />
<glyph unicode="&#xe6;" horiz-adv-x="2504" d="M62 688q6 136 58 266t146 232t232 165t316 63q108 0 235 -41t245 -153q92 96 221 153t301 59q146 0 268 -61t207 -166t125 -245t22 -296l-940 -4q2 -64 21 -123t53 -106t81 -78t105 -37q122 -14 201 49t113 183l384 -6q-20 -144 -71 -243t-131 -164t-188 -99t-240 -46 q-94 -10 -184 15t-165 76t-130 125t-77 166q-24 -66 -69 -134t-111 -124t-150 -93t-186 -39q-182 -6 -316 53t-220 159t-124 229t-32 265zM465 726q-9 -106 18 -197t90 -152t163 -59q82 0 149 56t109 140t58 182t-2 185t-72 149t-150 72q-110 12 -188 -42t-122 -141 t-53 -193zM1544 928l514 4q-34 106 -102 155t-145 45t-150 -56t-117 -148z" />
<glyph unicode="&#xe7;" horiz-adv-x="1464" d="M28 700q0 136 47 267t141 234t236 166t330 65q260 2 424 -143t214 -413l-374 -38q-6 44 -22 96t-46 96t-76 74t-110 30q-102 0 -173 -58t-109 -145t-43 -190t21 -193t85 -155t151 -77q122 -14 201 49t113 183l384 -6q-40 -286 -202 -416t-428 -136q-192 -4 -335 55 t-239 160t-143 230t-47 265zM580 -496l4 190q84 -6 141 16t69 50t-33 48t-169 6v238l224 4l-8 -98q78 -4 129 -25t82 -51t43 -65t10 -67q-4 -50 -36 -97t-94 -83t-152 -54t-210 -12z" />
<glyph unicode="&#xe8;" horiz-adv-x="1470" d="M56 688q0 138 45 271t136 238t227 169t318 66q146 0 268 -61t207 -166t125 -245t22 -296l-942 -10q-2 -142 64 -232t198 -106q122 -14 201 49t113 183l384 -6q-20 -144 -71 -245t-131 -167t-187 -99t-241 -41q-184 -10 -322 46t-230 155t-138 229t-46 268zM510 928l514 4 q-34 106 -102 155t-145 45t-150 -56t-117 -148zM510 1800l240 104q38 -80 94 -154t134 -158l-260 -96q-38 80 -88 152t-120 152z" />
<glyph unicode="&#xe9;" horiz-adv-x="1470" d="M56 688q0 138 45 271t136 238t227 169t318 66q146 0 268 -61t207 -166t125 -245t22 -296l-942 -10q-2 -142 64 -232t198 -106q122 -14 201 49t113 183l384 -6q-20 -144 -71 -245t-131 -167t-187 -99t-241 -41q-184 -10 -322 46t-230 155t-138 229t-46 268zM510 928l514 4 q-34 106 -102 155t-145 45t-150 -56t-117 -148zM522 1610q70 80 119 158t89 160l218 -128q-70 -80 -120 -152t-88 -152z" />
<glyph unicode="&#xea;" horiz-adv-x="1470" d="M56 688q0 138 45 271t136 238t227 169t318 66q146 0 268 -61t207 -166t125 -245t22 -296l-942 -10q-2 -142 64 -232t198 -106q122 -14 201 49t113 183l384 -6q-20 -144 -71 -245t-131 -167t-187 -99t-241 -41q-184 -10 -322 46t-230 155t-138 229t-46 268zM416 1552 l204 304l200 -6l232 -282l-226 -86l-100 142l-104 -138zM510 928l514 4q-34 106 -102 155t-145 45t-150 -56t-117 -148z" />
<glyph unicode="&#xeb;" horiz-adv-x="1470" d="M56 688q0 138 45 271t136 238t227 169t318 66q146 0 268 -61t207 -166t125 -245t22 -296l-942 -10q-2 -142 64 -232t198 -106q122 -14 201 49t113 183l384 -6q-20 -144 -71 -245t-131 -167t-187 -99t-241 -41q-184 -10 -322 46t-230 155t-138 229t-46 268zM368 1676 q0 80 52 120t115 40t115 -40t52 -120q0 -82 -52 -124t-115 -42t-115 41t-52 125zM510 928l514 4q-34 106 -102 155t-145 45t-150 -56t-117 -148zM768 1676q0 80 52 120t115 40t115 -40t52 -120q0 -82 -52 -124t-115 -42t-115 41t-52 125z" />
<glyph unicode="&#xec;" horiz-adv-x="578" d="M46 6q2 22 9 49t14 72t13 113t6 169t-6 242t-22 331l460 22q-20 -102 -29 -231t-6 -264t19 -266t48 -233zM60 1402l240 104q38 -80 94 -154t134 -158l-260 -96q-38 80 -88 152t-120 152z" />
<glyph unicode="&#xed;" horiz-adv-x="578" d="M46 6q2 22 9 49t14 72t13 113t6 169t-6 242t-22 331l460 22q-20 -102 -29 -231t-6 -264t19 -266t48 -233zM116 1270q70 80 119 158t89 160l218 -128q-70 -80 -120 -152t-88 -152z" />
<glyph unicode="&#xee;" horiz-adv-x="578" d="M-20 1154l204 304l200 -6l232 -282l-226 -86l-100 142l-104 -138zM46 6q2 22 9 49t14 72t13 113t6 169t-6 242t-22 331l460 22q-20 -102 -29 -231t-6 -264t19 -266t48 -233z" />
<glyph unicode="&#xef;" horiz-adv-x="578" d="M-58 1278q0 80 52 120t115 40t115 -40t52 -120q0 -82 -52 -124t-115 -42t-115 41t-52 125zM46 6q2 22 9 49t14 72t13 113t6 169t-6 242t-22 331l460 22q-20 -102 -29 -231t-6 -264t19 -266t48 -233zM342 1278q0 80 52 120t115 40t115 -40t52 -120q0 -82 -52 -124 t-115 -42t-115 41t-52 125z" />
<glyph unicode="&#xf1;" horiz-adv-x="1622" d="M70 2q18 70 30 178t16 236t3 266t-6 265t-14 234t-21 175l434 16q-2 -18 -2 -53t-2 -53q26 22 62 46t84 43t112 33t148 14q150 2 258 -69t182 -187t118 -266t67 -305t29 -305t2 -266l-452 -20q8 116 5 239t-16 240t-38 220t-60 179t-82 119t-105 39q-78 -6 -133 -65 t-94 -185t-66 -324t-47 -480zM256 1572q26 130 97 212t161 106q58 16 113 10t105 -23t95 -40t83 -40t70 -22t58 13q48 32 66 102l260 -62q-34 -138 -101 -212t-163 -86q-50 -6 -96 6t-89 33t-82 44t-77 36t-74 12t-72 -27q-18 -14 -37 -44t-39 -82z" />
<glyph unicode="&#xf2;" horiz-adv-x="1526" d="M68 737q8 135 58 263t141 229t224 162t307 63q184 2 317 -63t217 -170t120 -241t26 -276t-65 -273t-154 -234t-241 -159t-324 -48q-166 8 -287 76t-199 172t-113 234t-27 265zM480 752q-8 -78 3 -154t41 -136t79 -99t119 -41q110 -6 185 50t117 144t49 192t-19 196 t-85 158t-149 76q-76 8 -136 -22t-103 -85t-68 -128t-33 -151zM528 1800l240 104q38 -80 94 -154t134 -158l-260 -96q-38 80 -88 152t-120 152z" />
<glyph unicode="&#xf3;" horiz-adv-x="1526" d="M68 737q8 135 58 263t141 229t224 162t307 63q184 2 317 -63t217 -170t120 -241t26 -276t-65 -273t-154 -234t-241 -159t-324 -48q-166 8 -287 76t-199 172t-113 234t-27 265zM480 752q-8 -78 3 -154t41 -136t79 -99t119 -41q110 -6 185 50t117 144t49 192t-19 196 t-85 158t-149 76q-76 8 -136 -22t-103 -85t-68 -128t-33 -151zM550 1610q70 80 119 158t89 160l218 -128q-70 -80 -120 -152t-88 -152z" />
<glyph unicode="&#xf4;" horiz-adv-x="1526" d="M68 737q8 135 58 263t141 229t224 162t307 63q184 2 317 -63t217 -170t120 -241t26 -276t-65 -273t-154 -234t-241 -159t-324 -48q-166 8 -287 76t-199 172t-113 234t-27 265zM444 1552l204 304l200 -6l232 -282l-226 -86l-100 142l-104 -138zM480 752q-8 -78 3 -154 t41 -136t79 -99t119 -41q110 -6 185 50t117 144t49 192t-19 196t-85 158t-149 76q-76 8 -136 -22t-103 -85t-68 -128t-33 -151z" />
<glyph unicode="&#xf5;" horiz-adv-x="1526" d="M68 737q8 135 58 263t141 229t224 162t307 63q184 2 317 -63t217 -170t120 -241t26 -276t-65 -273t-154 -234t-241 -159t-324 -48q-166 8 -287 76t-199 172t-113 234t-27 265zM208 1572q26 130 97 212t161 106q58 16 113 10t105 -23t95 -40t83 -40t70 -22t58 13 q48 32 66 102l260 -62q-34 -138 -101 -212t-163 -86q-50 -6 -96 6t-89 33t-82 44t-77 36t-74 12t-72 -27q-18 -14 -37 -44t-39 -82zM480 752q-8 -78 3 -154t41 -136t79 -99t119 -41q110 -6 185 50t117 144t49 192t-19 196t-85 158t-149 76q-76 8 -136 -22t-103 -85t-68 -128 t-33 -151z" />
<glyph unicode="&#xf6;" horiz-adv-x="1526" d="M68 737q8 135 58 263t141 229t224 162t307 63q184 2 317 -63t217 -170t120 -241t26 -276t-65 -273t-154 -234t-241 -159t-324 -48q-166 8 -287 76t-199 172t-113 234t-27 265zM396 1676q0 80 52 120t115 40t115 -40t52 -120q0 -82 -52 -124t-115 -42t-115 41t-52 125z M480 752q-8 -78 3 -154t41 -136t79 -99t119 -41q110 -6 185 50t117 144t49 192t-19 196t-85 158t-149 76q-76 8 -136 -22t-103 -85t-68 -128t-33 -151zM796 1676q0 80 52 120t115 40t115 -40t52 -120q0 -82 -52 -124t-115 -42t-115 41t-52 125z" />
<glyph unicode="&#xf7;" horiz-adv-x="1260" d="M70 482v476q38 -12 112 -22t171 -17t208 -9t223 3t217 17t189 34l26 -468q-166 18 -306 31t-273 14t-271 -12t-296 -47zM384 238q0 72 33 120t83 72t108 24t108 -24t83 -72t33 -120q0 -74 -33 -123t-83 -74t-108 -25t-108 25t-83 74t-33 123zM386 1204q0 72 33 120t83 72 t108 24t108 -24t83 -72t33 -120q0 -74 -33 -123t-83 -74t-108 -25t-108 25t-83 74t-33 123z" />
<glyph unicode="&#xf8;" horiz-adv-x="1526" d="M68 737q8 135 58 263t141 229t224 162t307 63q184 2 317 -63t217 -170t120 -241t26 -276t-65 -273t-154 -234t-241 -159t-324 -48q-166 8 -287 76t-199 172t-113 234t-27 265zM164 178q8 -2 72 83t175 253t264 421t337 587l386 -264q-46 -50 -118 -150t-154 -226 t-167 -267t-158 -273t-125 -244t-70 -182zM480 752q-8 -78 3 -154t41 -136t79 -99t119 -41q110 -6 185 50t117 144t49 192t-19 196t-85 158t-149 76q-76 8 -136 -22t-103 -85t-68 -128t-33 -151z" />
<glyph unicode="&#xf9;" d="M53 760q-11 162 3 327t44 313l444 -8q-20 -122 -26 -248t0 -243t25 -219t52 -176t78 -115t103 -37q78 6 132 63t93 180t65 319t46 478l412 12q-18 -86 -27 -207t-12 -256t0 -276t9 -269t15 -232t21 -164l-444 -30q0 8 1 27t1 40t1 40t1 29q-28 -22 -63 -44t-83 -41 t-112 -33t-148 -18q-162 -8 -276 53t-189 170t-115 256t-51 309zM554 1800l240 104q38 -80 94 -154t134 -158l-260 -96q-38 80 -88 152t-120 152z" />
<glyph unicode="&#xfa;" d="M53 760q-11 162 3 327t44 313l444 -8q-20 -122 -26 -248t0 -243t25 -219t52 -176t78 -115t103 -37q78 6 132 63t93 180t65 319t46 478l412 12q-18 -86 -27 -207t-12 -256t0 -276t9 -269t15 -232t21 -164l-444 -30q0 8 1 27t1 40t1 40t1 29q-28 -22 -63 -44t-83 -41 t-112 -33t-148 -18q-162 -8 -276 53t-189 170t-115 256t-51 309zM574 1610q70 80 119 158t89 160l218 -128q-70 -80 -120 -152t-88 -152z" />
<glyph unicode="&#xfb;" d="M53 760q-11 162 3 327t44 313l444 -8q-20 -122 -26 -248t0 -243t25 -219t52 -176t78 -115t103 -37q78 6 132 63t93 180t65 319t46 478l412 12q-18 -86 -27 -207t-12 -256t0 -276t9 -269t15 -232t21 -164l-444 -30q0 8 1 27t1 40t1 40t1 29q-28 -22 -63 -44t-83 -41 t-112 -33t-148 -18q-162 -8 -276 53t-189 170t-115 256t-51 309zM470 1552l204 304l200 -6l232 -282l-226 -86l-100 142l-104 -138z" />
<glyph unicode="&#xfc;" d="M53 760q-11 162 3 327t44 313l444 -8q-20 -122 -26 -248t0 -243t25 -219t52 -176t78 -115t103 -37q78 6 132 63t93 180t65 319t46 478l412 12q-18 -86 -27 -207t-12 -256t0 -276t9 -269t15 -232t21 -164l-444 -30q0 8 1 27t1 40t1 40t1 29q-28 -22 -63 -44t-83 -41 t-112 -33t-148 -18q-162 -8 -276 53t-189 170t-115 256t-51 309zM420 1676q0 80 52 120t115 40t115 -40t52 -120q0 -82 -52 -124t-115 -42t-115 41t-52 125zM820 1676q0 80 52 120t115 40t115 -40t52 -120q0 -82 -52 -124t-115 -42t-115 41t-52 125z" />
<glyph unicode="&#xfd;" horiz-adv-x="1512" d="M39 1023q9 215 79 453l422 -42q-28 -150 -47 -298t-7 -264t67 -186t179 -64q102 4 165 69t91 177t24 264t-34 330l434 28q12 -104 24 -217t21 -230t11 -236t-6 -235q-12 -164 -54 -314t-126 -271t-219 -203t-335 -112q-150 -22 -294 9t-264 101l194 300q102 -46 214 -40 t208 53t163 131t81 198q-56 -54 -110 -88t-106 -51t-104 -22t-106 -1q-204 10 -331 112t-185 268t-49 381zM542 1610q70 80 119 158t89 160l218 -128q-70 -80 -120 -152t-88 -152z" />
<glyph unicode="&#xfe;" horiz-adv-x="1594" d="M42 -118q18 68 29 187t16 262t3 299t-8 298t-15 259t-21 185l452 -6q0 -10 -2 -39t-3 -64t-3 -65t-2 -38q18 14 53 33t81 36t97 28t103 11q178 0 315 -54t230 -142t143 -201t55 -231t-35 -232t-127 -204t-222 -146t-317 -58q-110 -2 -195 26t-157 88q2 -12 5 -40t6 -58 t5 -57t6 -39zM555 626q7 -84 48 -153t113 -110t178 -29q92 10 149 61t82 120t17 147t-48 144t-112 108t-174 42q-92 0 -151 -50t-84 -123t-18 -157z" />
<glyph unicode="&#xff;" horiz-adv-x="1512" d="M39 1023q9 215 79 453l422 -42q-28 -150 -47 -298t-7 -264t67 -186t179 -64q102 4 165 69t91 177t24 264t-34 330l434 28q12 -104 24 -217t21 -230t11 -236t-6 -235q-12 -164 -54 -314t-126 -271t-219 -203t-335 -112q-150 -22 -294 9t-264 101l194 300q102 -46 214 -40 t208 53t163 131t81 198q-56 -54 -110 -88t-106 -51t-104 -22t-106 -1q-204 10 -331 112t-185 268t-49 381zM332 1668q0 80 52 120t115 40t115 -40t52 -120q0 -82 -52 -124t-115 -42t-115 41t-52 125zM732 1668q0 80 52 120t115 40t115 -40t52 -120q0 -82 -52 -124t-115 -42 t-115 41t-52 125z" />
<glyph unicode="&#x152;" horiz-adv-x="1974" d="M50 764q-2 144 42 280t135 238t231 159t332 43q64 -4 153 -14t191 -20t212 -18t217 -9t206 8t179 33l10 -364q-140 20 -262 26t-220 3t-171 -12t-115 -19q-6 -46 -11 -105t-9 -125q140 -6 275 11t267 39l-18 -404q-186 48 -312 58t-220 -2q0 -60 2 -116t6 -104 q54 -24 153 -30t211 -1t220 19t178 32l16 -418q-120 20 -275 26t-319 5t-324 -4t-290 -1q-166 2 -294 72t-215 181t-133 250t-48 283zM409 742q-1 -84 21 -165t69 -144t117 -100t166 -35q14 156 21 377t-1 507q-96 2 -169 -34t-122 -99t-75 -143t-27 -164z" />
<glyph unicode="&#x153;" horiz-adv-x="2226" d="M36 709q8 135 58 263t141 229t224 162t307 63q116 0 211 -26t171 -74q80 48 177 76t213 30q146 0 268 -61t207 -166t125 -245t22 -296l-942 -10q-2 -142 64 -232t198 -106q122 -14 201 49t113 183l384 -6q-20 -144 -71 -245t-131 -167t-187 -99t-241 -41q-128 -8 -232 17 t-188 77q-92 -64 -208 -97t-258 -25q-166 8 -287 76t-199 172t-113 234t-27 265zM448 724q-10 -108 13 -202t80 -159t149 -69q58 -4 107 13t89 47q-40 82 -58 172t-16 183t25 183t67 172q-24 20 -53 31t-63 15q-102 12 -174 -44t-114 -145t-52 -197zM1266 928l514 4 q-34 106 -102 155t-145 45t-150 -56t-117 -148z" />
<glyph unicode="&#x178;" d="M16 1302l418 152q30 -66 73 -156t95 -180t109 -170t111 -124q40 42 84 123t86 175t79 188t65 162l430 -168q-106 -158 -181 -278t-135 -224t-113 -202t-115 -212q0 -46 -1 -101t1 -111t7 -111t15 -101l-462 -36q6 30 8 78t1 110t-2 137t-1 157q-44 86 -97 172t-122 189 t-156 231t-197 300zM420 1706q0 80 52 120t115 40t115 -40t52 -120q0 -82 -52 -124t-115 -42t-115 41t-52 125zM820 1706q0 80 52 120t115 40t115 -40t52 -120q0 -82 -52 -124t-115 -42t-115 41t-52 125z" />
<glyph unicode="&#x2c6;" horiz-adv-x="742" d="M82 1552l204 304l200 -6l232 -282l-226 -86l-100 142l-104 -138z" />
<glyph unicode="&#x2dc;" horiz-adv-x="1146" d="M12 1572q26 130 97 212t161 106q58 16 113 10t105 -23t95 -40t83 -40t70 -22t58 13q48 32 66 102l260 -62q-34 -138 -101 -212t-163 -86q-50 -6 -96 6t-89 33t-82 44t-77 36t-74 12t-72 -27q-18 -14 -37 -44t-39 -82z" />
<glyph unicode="&#x2000;" horiz-adv-x="986" />
<glyph unicode="&#x2001;" horiz-adv-x="1972" />
<glyph unicode="&#x2002;" horiz-adv-x="986" />
<glyph unicode="&#x2003;" horiz-adv-x="1972" />
<glyph unicode="&#x2004;" horiz-adv-x="657" />
<glyph unicode="&#x2005;" horiz-adv-x="493" />
<glyph unicode="&#x2006;" horiz-adv-x="328" />
<glyph unicode="&#x2007;" horiz-adv-x="328" />
<glyph unicode="&#x2008;" horiz-adv-x="246" />
<glyph unicode="&#x2009;" horiz-adv-x="394" />
<glyph unicode="&#x200a;" horiz-adv-x="109" />
<glyph unicode="&#x2010;" horiz-adv-x="1262" d="M70 486v452q36 -12 106 -21t162 -16t198 -9t212 3t206 16t180 33l24 -444q-156 16 -289 28t-261 14t-258 -11t-280 -45z" />
<glyph unicode="&#x2011;" horiz-adv-x="1262" d="M70 486v452q36 -12 106 -21t162 -16t198 -9t212 3t206 16t180 33l24 -444q-156 16 -289 28t-261 14t-258 -11t-280 -45z" />
<glyph unicode="&#x2012;" horiz-adv-x="1262" d="M70 486v452q36 -12 106 -21t162 -16t198 -9t212 3t206 16t180 33l24 -444q-156 16 -289 28t-261 14t-258 -11t-280 -45z" />
<glyph unicode="&#x2013;" horiz-adv-x="1198" d="M70 486v452q34 -12 100 -21t152.5 -16t186 -9t199.5 3t194 16t169 33l23 -444q-147 16 -272 28t-245.5 14t-243 -11t-263.5 -45z" />
<glyph unicode="&#x2014;" horiz-adv-x="2222" d="M70 486v452q68 -12 199.5 -21t305 -16t373 -9t399 3t387.5 16t339 33l45 -444q-294 16 -544 28t-491 14t-486 -11t-527 -45z" />
<glyph unicode="&#x2018;" horiz-adv-x="528" d="M57 1161q19 97 83 183l246 -142q-58 -88 -36 -164t120 -108l-118 -214q-118 32 -190 102t-98 158t-7 185z" />
<glyph unicode="&#x2019;" horiz-adv-x="528" d="M48 930q98 32 120 108t-36 164l246 142q64 -86 83 -183t-7 -185t-98 -158t-190 -102z" />
<glyph unicode="&#x201a;" horiz-adv-x="518" d="M50 2q98 32 120 108t-36 164l246 142q64 -86 83 -183t-7 -185t-98 -158t-190 -102z" />
<glyph unicode="&#x201c;" horiz-adv-x="1004" d="M57 1177q19 97 83 183l246 -142q-58 -88 -36 -164t120 -108l-118 -214q-118 32 -190 102t-98 158t-7 185zM505 1161q19 97 83 183l246 -142q-58 -88 -36 -164t120 -108l-118 -214q-118 32 -190 102t-98 158t-7 185z" />
<glyph unicode="&#x201d;" horiz-adv-x="1004" d="M48 930q98 32 120 108t-36 164l246 142q64 -86 83 -183t-7 -185t-98 -158t-190 -102zM496 946q98 32 120 108t-36 164l246 142q64 -86 83 -183t-7 -185t-98 -158t-190 -102z" />
<glyph unicode="&#x201e;" horiz-adv-x="1004" d="M68 36q98 32 120 108t-36 164l246 142q64 -86 83 -183t-7 -185t-98 -158t-190 -102zM516 52q98 32 120 108t-36 164l246 142q64 -86 83 -183t-7 -185t-98 -158t-190 -102z" />
<glyph unicode="&#x2022;" horiz-adv-x="1238" d="M34 886l394 76l192 418l202 -402l406 -46l-314 -300l134 -428l-434 178l-408 -222l154 460z" />
<glyph unicode="&#x2026;" horiz-adv-x="1602" d="M44 180q0 72 33 120t83 72t108 24t108 -24t83 -72t33 -120q0 -74 -33 -123t-83 -74t-108 -25t-108 25t-83 74t-33 123zM578 180q0 72 33 120t83 72t108 24t108 -24t83 -72t33 -120q0 -74 -33 -123t-83 -74t-108 -25t-108 25t-83 74t-33 123zM1112 180q0 72 33 120t83 72 t108 24t108 -24t83 -72t33 -120q0 -74 -33 -123t-83 -74t-108 -25t-108 25t-83 74t-33 123z" />
<glyph unicode="&#x202f;" horiz-adv-x="394" />
<glyph unicode="&#x2039;" horiz-adv-x="1106" d="M96 412l4 526q82 24 164 58t172 80t192 106t222 136l196 -424q-76 -16 -167 -50t-172 -71t-139 -67t-68 -36q122 -38 196 -60t127 -34t100 -18t115 -8l-88 -458q-128 72 -247 124t-228 90t-204 63t-175 43z" />
<glyph unicode="&#x203a;" horiz-adv-x="1140" d="M96 894l196 424q120 -76 222 -136t192 -106t172 -80t164 -58l4 -526q-80 -18 -175 -43t-204 -63t-228 -90t-247 -124l-88 458q68 2 115 8t100 18t126 34t197 60q-10 6 -68 36t-139 67t-172 71t-167 50z" />
<glyph unicode="&#x205f;" horiz-adv-x="493" />
<glyph unicode="&#x20ac;" horiz-adv-x="1504" d="M38 406l20 240q14 -4 28 -5t30 -3q-4 22 -4 42v42q-40 -6 -72 -12v260q12 -4 41 -7t71 -7q32 102 94 191t152 156t208 107t266 40q128 0 228 -29t172 -84t117 -133t65 -172l-346 -96q-6 44 -26 83t-57 66t-90 37t-123 -2q-88 -16 -147 -62t-95 -110q120 2 226 9t162 23 l36 -252q-90 10 -217 15t-263 5q-2 -58 10 -126q130 2 248 12t196 26l20 -240q-36 0 -138 2t-236 4q40 -50 93 -82t123 -42q122 -16 201 48t113 184l342 -118q-28 -94 -73 -174t-116 -140t-169 -95t-232 -37q-144 -2 -261 32t-208 94t-156 142t-103 178q-34 -4 -66 -5 t-64 -5z" />
<glyph unicode="&#xe000;" horiz-adv-x="1440" d="M0 0v1440h1440v-1440h-1440z" />
</font>
</defs>
</svg>
